<?xml version="1.0" standalone="no"?>
<!DOCTYPE svg PUBLIC "-//W3C//DTD SVG 1.1//EN" "http://www.w3.org/Graphics/SVG/1.1/DTD/svg11.dtd" >
<svg xmlns="http://www.w3.org/2000/svg">
<metadata></metadata>
<defs>
<font id="quicksandbold" horiz-adv-x="1255" >
<font-face units-per-em="2048" ascent="1638" descent="-410" />
<missing-glyph horiz-adv-x="614" />
<glyph horiz-adv-x="0" />
<glyph unicode="&#xd;" horiz-adv-x="681" />
<glyph unicode=" "  horiz-adv-x="614" />
<glyph unicode="&#x09;" horiz-adv-x="614" />
<glyph unicode="&#xa0;" horiz-adv-x="614" />
<glyph unicode="!" horiz-adv-x="516" d="M190 113v41q0 47 34 79.5t79 32.5t78 -32.5t33 -79.5v-41q0 -47 -32 -80t-79 -33t-80 33t-33 80zM190 494v827q0 47 34 80t79 33t78 -33t33 -80v-827q0 -47 -32 -80t-79 -33t-80 32.5t-33 80.5z" />
<glyph unicode="&#x22;" horiz-adv-x="839" d="M141 887l37 438q4 49 36 82t81 33h80q31 0 49 -18.5t18 -40t-8 -54.5l-149 -455q-23 -63 -74 -63q-31 0 -51.5 21.5t-18.5 56.5zM592 887l35 438q4 49 35.5 82t80.5 33h82q29 0 47.5 -18.5t18.5 -40t-8 -54.5l-150 -455q-23 -63 -74 -63q-31 0 -50 21.5t-17 56.5z" />
<glyph unicode="#" horiz-adv-x="1433" d="M92 435q0 44 31 76t76 32h131l61 356h-119q-43 0 -74.5 32t-31.5 75t31.5 74.5t74.5 31.5h156l41 244q6 39 36 63.5t75 24.5t76.5 -38t25.5 -87l-37 -207h322l41 244q6 39 36.5 63.5t75.5 24.5t77 -39t24 -86l-35 -207h94q43 0 74.5 -30.5t31.5 -74.5t-31.5 -76 t-74.5 -32h-131l-62 -356h117q45 0 76 -31t31 -75t-31 -75.5t-76 -31.5h-153l-43 -252q-6 -39 -36 -63.5t-75 -24.5t-78 38t-24 87l39 215h-322l-43 -252q-6 -37 -36 -62.5t-76 -25.5t-77.5 37t-23.5 88l37 215h-94q-45 0 -76 30.5t-31 74.5zM549 543h319l62 356h-320z" />
<glyph unicode="$" horiz-adv-x="1294" d="M125 254q0 55 32.5 88t75.5 33t72 -23q152 -111 303 -137v403q-229 59 -333.5 155.5t-104.5 263.5t119 272.5t311 122.5v43q0 37 26.5 62.5t63.5 25.5t62.5 -26t25.5 -62v-45q170 -20 318 -113q61 -35 61 -90.5t-33.5 -88t-72.5 -32.5t-70 18q-111 68 -211 90v-393 q233 -59 338.5 -158.5t105.5 -264.5t-118.5 -272.5t-317.5 -125.5v-123q0 -37 -25.5 -62.5t-62.5 -25.5t-63.5 25.5t-26.5 62.5v127q-227 25 -420 160q-55 35 -55 90zM412 1055.5q0 -68.5 41 -111.5t155 -80v363q-96 -8 -146 -55.5t-50 -116zM770 207q98 10 150.5 57 t52.5 119t-44 117t-159 80v-373z" />
<glyph unicode="%" horiz-adv-x="1687" d="M113 1079v4q0 154 95 260.5t244.5 106.5t242.5 -105.5t93 -257.5v-4q0 -153 -95 -259.5t-243.5 -106.5t-242.5 105.5t-94 256.5zM295 1083q0 -88 45 -148.5t113.5 -60.5t110.5 59.5t42 145.5v4q0 88 -45 148.5t-113.5 60.5t-110.5 -59t-42 -146v-4zM330 66.5 q0 29.5 18 56.5l940 1284q23 37 64 37t64.5 -23.5t23.5 -53.5t-19 -56l-940 -1284q-25 -37 -64.5 -37t-63 23.5t-23.5 53zM979 346v4q0 154 95 260.5t243.5 106.5t243 -105.5t94.5 -257.5v-4q0 -151 -95.5 -258.5t-244 -107.5t-242.5 105.5t-94 256.5zM1161 350 q0 -88 45 -148.5t114 -60.5t111 59.5t42 145.5v4q0 88 -45.5 148.5t-114 60.5t-110.5 -59.5t-42 -145.5v-4z" />
<glyph unicode="&#x26;" horiz-adv-x="1425" d="M100 498q0 211 160 354q-57 92 -57 201q0 158 111.5 269.5t269 111.5t269.5 -112t112 -269q0 -47 -33 -80t-80 -33t-81 33t-34 89t-45 100t-108.5 44t-108.5 -45t-45 -116.5t66 -116.5q35 -29 44 -71t-14 -81h-2q-4 -12 -8 -15t-12 -11q-10 -10 -27 -19 q-68 -33 -108.5 -97.5t-40.5 -158.5t76.5 -171t187 -77t188.5 77t78 188v12q-125 -2 -156 -39q-16 -16 -16 -35q0 -16 2 -33q14 -51 -17.5 -98t-90.5 -47q-121 0 -121 168q-4 123 84 207q109 104 319 104q45 0 68 -2h8q23 0 29 6v15q0 16 -2 30q-12 45 12 85t71.5 50.5 t87.5 -15.5t48 -71q31 -96 -13 -190q-25 -55 -65 -86q-10 -4 -23 -12q2 -16 2 -49q0 -205 -144 -348.5t-349 -143.5t-348.5 143.5t-143.5 354.5z" />
<glyph unicode="'" horiz-adv-x="471" d="M141 887l37 438q4 49 36 82t81 33h80q31 0 50 -18.5t19 -40t-8 -54.5l-149 -455q-23 -63 -76 -63q-31 0 -51.5 21.5t-18.5 56.5z" />
<glyph unicode="(" horiz-adv-x="880" d="M145 627q0 545 246 737q104 82 244 82q53 0 91 -38t38 -91t-38 -92t-90 -39t-89 -28t-70 -99q-76 -154 -71 -432q-4 -205 37.5 -345.5t105.5 -187.5q35 -27 87 -27.5t90 -38.5t38 -91.5t-38 -91.5t-91 -38h-4q-137 0 -236 78q-250 201 -250 742z" />
<glyph unicode=")" horiz-adv-x="880" d="M123 -63.5q0 53.5 38 91.5t90 39t87 27q63 47 105 187.5t38 345.5q4 279 -71 432q-33 72 -70 99.5t-89 27.5t-90 39t-38 92t38 91t91 38q139 0 244 -82q246 -193 246 -738.5t-246 -738.5q-102 -80 -240 -80h-4q-53 0 -91 38t-38 91.5z" />
<glyph unicode="*" horiz-adv-x="880" d="M156 976q0 36 47 56l180 78l-180 80q-47 20 -47 55t20.5 55.5t46 20.5t51.5 -21l154 -112l-20 182q-4 33 14 55.5t49 22.5t49.5 -21.5t14.5 -54.5l-21 -184l154 112q27 20 52 20.5t45.5 -19t20.5 -55.5t-47 -56l-180 -80l180 -78q47 -20 47 -56t-20.5 -56.5t-44 -20.5 t-53.5 21l-154 112l21 -182q4 -33 -14.5 -55.5t-49.5 -22.5t-49 21.5t-14 54.5l20 184l-154 -112q-31 -20 -54 -20.5t-43.5 20t-20.5 56.5z" />
<glyph unicode="+" horiz-adv-x="1269" d="M131 720q0 46 33 80t80 34h291v284q0 49 33.5 83t81.5 34t83 -34t35 -83v-284h291q47 0 79.5 -34t32.5 -80t-32.5 -79t-79.5 -33h-291v-284q0 -49 -35 -83t-83 -34t-81.5 34t-33.5 83v284h-291q-47 0 -80 33t-33 79z" />
<glyph unicode="," horiz-adv-x="471" d="M111 -240q0 45 47 56q145 47 139 184q-49 14 -83 51t-34 88v17q0 59 39 98t104.5 39t104.5 -48t39 -132v-23q0 -195 -100 -299q-92 -88 -193 -88q-63 0 -63 57z" />
<glyph unicode="-" horiz-adv-x="835" d="M135 628q0 50 36 86t85 36h385q49 0 85 -36t36 -86t-36 -86t-85 -36h-385q-49 0 -85 36t-36 86z" />
<glyph unicode="." horiz-adv-x="471" d="M168 137.5q0 63.5 44 108.5t107.5 45t108.5 -45t45 -108.5t-45 -107.5t-108.5 -44t-107.5 44t-44 107.5z" />
<glyph unicode="/" horiz-adv-x="864" d="M174 156l502 1194q18 43 61 60t86 0t60.5 -61t-0.5 -85l-502 -1196q-29 -68 -98.5 -68t-100 51t-8.5 105z" />
<glyph unicode="0" horiz-adv-x="1454" d="M133 717q4 291 139 489q150 227 381 228q115 0 213.5 -62.5t165.5 -165.5q137 -205 137 -489.5t-137 -489.5q-68 -102 -167 -164.5t-212 -62.5q-229 0 -381 227q-135 199 -139 490zM360.5 715.5q-0.5 -213.5 98.5 -361.5q88 -127 193.5 -127t191.5 127q98 147 98 361.5 t-98 365.5q-88 129 -191 125q-102 4 -194 -125q-98 -152 -98.5 -365.5z" />
<glyph unicode="1" horiz-adv-x="686" d="M80.5 1199q11.5 46 52.5 69l252 149l8 4l10 6l13 3q4 4 22 4h23q2 -2 7 -2.5t13 -4.5l21 -8l18 -14q29 -27 29 -38t2 -14t3 -12.5t5 -13.5v-1214q0 -47 -33.5 -80t-81 -33t-80 33t-32.5 80v1007l-82 -47q-25 -16 -57 -16q-63 0 -97 57q-27 39 -15.5 85z" />
<glyph unicode="2" horiz-adv-x="1208" d="M102 118q2 46 37 79l606 548q86 78 86 188.5t-72.5 191.5t-182 81t-187.5 -67l-63 -58q-35 -33 -81 -29.5t-79 38.5q-31 35 -29 81t37 78l64 58q135 127 341.5 127t352.5 -162q127 -135 127 -342t-162 -352l-387 -351h436q47 0 80 -33.5t33 -80.5t-33 -80t-80 -33h-729 q-53 0 -85 36t-30 82z" />
<glyph unicode="3" horiz-adv-x="1249" d="M155.5 234q0.5 49 35 81.5t81.5 32.5t82 -33q80 -80 195 -79.5t196.5 81t81.5 195.5t-78.5 193.5t-197.5 82.5q-51 -4 -84 37q-2 0 -2 2q-35 33 -36 81t32 83l209 213h-332q-47 0 -81 34t-34 82t34 82t81 34h604q49 0 83 -34t34 -82t-35 -83l-258 -266q86 -39 143 -101 q150 -147 150 -358t-149.5 -360.5t-359.5 -149.5t-360 150q-35 33 -34.5 82z" />
<glyph unicode="4" horiz-adv-x="1359" d="M110.5 368q-4.5 46 24.5 83l758 942q4 0 10 12q4 2 13.5 9t17.5 7q4 6 8 6l12 5q6 0 9 2h34q5 -2 11 -2q4 -4 12 -5l8 -2q8 -8 15.5 -11t7.5 -5q6 0 6 -4q14 -14 22 -27l8 -20q4 -16 5 -21l2 -10v-833h20q47 0 81 -33t34 -80t-34 -80t-81 -33h-20v-155q0 -47 -33 -80 t-80 -33t-80 33t-33 80v155h-645q-43 0 -69 25q-39 29 -43.5 75zM461 494h407v505z" />
<glyph unicode="5" horiz-adv-x="1239" d="M135 231q0 48 34 82.5t82 34.5t83 -35q80 -82 195.5 -82t196.5 82t81 197t-80 194.5t-197.5 79.5t-195.5 -79q-35 -33 -82 -33q-57 0 -92 45q-8 10 -13 14q0 11 -6 17l-2 14q-8 16 -2 39l62 530q10 53 51 82q41 20 67 21h605q49 0 82.5 -34t33.5 -82t-33.5 -82t-82.5 -34 h-504l-25 -203q68 18 137 19q211 0 359.5 -148.5t148.5 -359.5t-148.5 -360.5t-359.5 -149.5h-4q-213 0 -356 150q-35 33 -35 81z" />
<glyph unicode="6" horiz-adv-x="1314" d="M131 565q0 256 86 459t250 311q135 90 307 97q47 2 81 -30t37 -78t-30 -81t-80 -39q-104 -2 -197 -62.5t-151 -191.5q92 41 197 41q207 0 352 -145.5t145 -350t-145 -350t-345 -145.5t-341.5 128t-159.5 316zM362 494.5q0 -111.5 78 -189.5t190.5 -78t191.5 78t79 189.5 t-79 191.5t-190.5 80t-190.5 -80t-79 -191.5z" />
<glyph unicode="7" horiz-adv-x="1202" d="M131 1321q0 47 33 80t80 33h702q20 0 64 -19l6 -6q27 -14 26 -35q2 -4 9 -10q2 -8 2 -10q14 -29 -2 -76l-512 -1210q-27 -68 -97.5 -68t-101.5 52t-10 104l442 1050h-528q-45 0 -79 34t-34 81z" />
<glyph unicode="8" horiz-adv-x="1290" d="M113 487q0 125 58 232.5t161 175.5q-68 86 -68 214t99.5 226.5t238.5 98.5t238.5 -98.5t99.5 -226.5t-68 -214q100 -68 160 -175.5t60 -232.5q0 -201 -143.5 -344t-345.5 -143t-346 143.5t-144 343.5zM336 487q2 -108 80 -186t187.5 -78t187 78t77.5 186.5t-77.5 187.5 t-187 79t-187.5 -78t-80 -189zM487 1098q0 -47 34 -82t81 -35t81 35t34 81t-33 79.5t-81 33.5t-82 -32.5t-34 -79.5z" />
<glyph unicode="9" horiz-adv-x="1314" d="M135 938q0 205 145.5 350.5t345 145.5t341 -128.5t159.5 -316.5l7 -121q0 -256 -86 -458.5t-250 -311.5q-135 -90 -308 -96q-47 -2 -80.5 29.5t-36.5 78t29.5 81t79.5 38.5q104 2 197.5 62.5t150.5 191.5q-92 -41 -196 -41q-207 0 -352.5 145.5t-145.5 350.5zM362 939 q0 -112 79 -191.5t190.5 -79.5t190.5 79.5t79 191.5t-78 189.5t-190.5 77.5t-191.5 -77.5t-79 -189.5z" />
<glyph unicode=":" horiz-adv-x="491" d="M178 137.5q0 63.5 44 108.5t107.5 45t108.5 -45t45 -108.5t-45 -107.5t-108.5 -44t-107.5 44t-44 107.5zM178 952.5q0 63.5 44 108.5t107.5 45t108.5 -45t45 -108.5t-45 -107.5t-108.5 -44t-107.5 44t-44 107.5z" />
<glyph unicode=";" horiz-adv-x="491" d="M121 -262q0 53 61 67q78 18 120 69.5t38 125.5q-59 14 -101 60t-42 108v4q0 74 47 121t128 47t129 -61.5t48 -167.5v-9q0 -215 -121 -335q-98 -98 -229 -99q-78 0 -78 70zM197 932v4q0 74 51 124t127 50t127 -50t51 -124v-4q0 -74 -51 -124t-127 -50t-127 50t-51 124z " />
<glyph unicode="&#x3c;" horiz-adv-x="1269" d="M123 711l2 10v14l6 17q0 10 2 10t2 2l10 18q0 4 5 4q4 8 12 15l575 583q39 37 93.5 37t92.5 -37.5t38 -91t-39 -92.5l-486 -489l486 -490q39 -41 39 -93t-39 -91q-41 -37 -92.5 -37t-92.5 37l-575 584q-6 2 -10 12q-8 6 -13 20q-6 2 -6 9.5t-4 11.5q0 4 -4 10v14z" />
<glyph unicode="=" horiz-adv-x="1269" d="M162 604q0 31 21.5 52.5t52.5 21.5h380q31 0 51.5 -21.5t20.5 -52.5t-20.5 -52.5t-51.5 -21.5h-380q-31 0 -52.5 21.5t-21.5 52.5zM162 832.5q0 29.5 21.5 51t52.5 21.5h380q31 0 51.5 -21.5t20.5 -51t-20.5 -50t-51.5 -20.5h-380q-31 0 -52.5 20.5t-21.5 50z" />
<glyph unicode="&#x3e;" horiz-adv-x="1269" d="M194.5 128q0.5 52 38.5 93l486 490l-486 489q-39 39 -38.5 92.5t38 91t92 37.5t93.5 -37l590 -598q4 -8 7 -13t4 -8t2 -3t1 -2l8 -25v-14q2 -8 2 -10l-2 -11v-16q-10 -20 -10 -29l-10 -18q0 -2 -2 -2l-590 -598q-37 -37 -90.5 -37t-94.5 37q-39 39 -38.5 91z" />
<glyph unicode="?" horiz-adv-x="1093" d="M94 1145q-10 39 10 76q55 96 154.5 154.5t216.5 58.5q178 0 305 -126t127 -291t-94 -280.5t-238 -150.5v-133q0 -43 -28.5 -72t-70.5 -29t-71.5 29t-29.5 72v213q0 2 1 2t0 2t-1 4q0 39 29.5 69.5t70.5 30.5q96 0 165 67.5t69 163t-69 162t-165 66.5q-131 0 -196 -113 q-23 -37 -63 -47t-77 10q-35 23 -45 62zM375 100v37q0 41 29.5 71t71.5 30t70.5 -30t28.5 -71v-37q0 -43 -28.5 -71.5t-70.5 -28.5t-71.5 28.5t-29.5 71.5z" />
<glyph unicode="@" horiz-adv-x="2007" d="M109 718q0 296 208.5 506t505.5 210t507 -210t210 -505q0 -182 -80 -330v-2q-2 -2 -8 -12q-25 -41 -43 -60q-104 -104 -213 -104q-68 -2 -119 38t-69 99q-86 -45 -185 -45q-168 0 -281.5 122t-113.5 293t114.5 293t280.5 122t282 -122t116 -292v-268q2 2 6 5t8 7 q78 78 78 268.5t-142.5 332.5t-345 142t-346 -143t-143.5 -345t143.5 -345.5t343.5 -143.5q66 0 117 12.5t92 -11t51.5 -69.5t-13 -86t-69.5 -52q-90 -23 -178 -23q-297 2 -505.5 212t-208.5 506zM655 718q0 -77 47.5 -132.5t121 -55.5t121.5 55.5t48 132.5t-49 132 t-120.5 55t-120 -55t-48.5 -132z" />
<glyph unicode="A" horiz-adv-x="1323" d="M133 154l453 1206q14 34 44 54q27 19 58 18h6h8q72 0 101 -72l452 -1206q7 -20 7 -39q0 -33 -20 -65q-30 -50 -100.5 -50t-97.5 72l-100 266h-498l-100 -266q-29 -72 -99.5 -72t-100.5 50q-19 31 -20 64q0 20 7 40zM528 563h332l-166 441z" />
<glyph unicode="B" horiz-adv-x="1216" d="M213 113v1208q0 47 33 80t80 33h290q162 0 276 -114t114 -259.5t-78 -249.5q94 -59 150.5 -157.5t56.5 -213.5q0 -182 -128 -311t-311 -129h-362l-2 2q-2 0 -6 -2q-47 0 -80 33t-33 80zM440 227h256q88 2 149.5 63.5t61.5 149.5t-61.5 148.5t-149.5 62.5h-256v-424z M440 879h176q68 0 115 49t47 116.5t-47 114.5t-115 47h-176v-327z" />
<glyph unicode="C" horiz-adv-x="1579" d="M150 737q2 303 223 519.5t528 218.5q268 0 473 -160q37 -31 43 -78q1 -8 1 -16q0 -38 -24 -70q-30 -39 -79 -45q-9 -1 -17 -1q-38 0 -67 23q-137 113 -339 113t-360 -147q-150 -153 -150 -360q0 -208 154 -354q152 -146 353 -146.5t342 112.5q28 22 66 22q9 0 18 -2 q49 -6 80 -42q24 -32 24 -70q1 -10 -1 -18q-6 -48 -44 -76q-205 -160 -473 -160q-307 0 -528 216t-223 521z" />
<glyph unicode="D" horiz-adv-x="1472" d="M213 113v1208q0 47 33 80t80 33h241q297 0 506 -210t209 -507t-209 -507t-506 -210h-241q-47 0 -80 33t-33 80zM440 227h127q203 2 345.5 144.5t142.5 345.5t-142.5 346t-345.5 143h-127v-979z" />
<glyph unicode="E" horiz-adv-x="1214" d="M213 113v1208q0 47 33 80t80 33h669q45 0 79 -33t34 -80t-34 -81t-79 -34h-555v-375h478q45 0 78.5 -33.5t33.5 -79.5t-32.5 -80t-79.5 -34h-478v-377h555q45 0 79 -33.5t34 -79.5t-34 -80t-79 -34h-663l-4 2l-2 -2q-47 0 -80 33t-33 80z" />
<glyph unicode="F" horiz-adv-x="1239" d="M213 113v1208q0 47 33 80t80 33h669q45 0 79 -34t34 -80t-34 -80t-79 -34h-555v-375h478q45 0 78.5 -33.5t33.5 -79.5t-32.5 -80t-79.5 -34h-478v-491q0 -47 -33.5 -80t-80.5 -33t-80 33t-33 80z" />
<glyph unicode="G" horiz-adv-x="1667" d="M150 735q0 307 221 523.5t534 216.5q264 0 467 -160q39 -29 45 -78q1 -9 1 -17q0 -39 -24 -70q-28 -38 -77 -44q-8 -1 -16 -1q-39 0 -72 25q-143 111 -341 111t-351.5 -147.5t-153.5 -356.5t154.5 -356.5t367.5 -147.5q145 0 281 78v281h-293q-47 0 -82 35t-35 83 t34 80.5t83 32.5h407q49 0 84 -32.5t35 -81.5v-453q0 -25 -10 -45v-2q-10 -29 -39 -49q-205 -160 -465 -160q-313 0 -534 214t-221 521z" />
<glyph unicode="H" horiz-adv-x="1452" d="M213 113v1208q0 47 33 80t80 33t80.5 -33t33.5 -80v-492h531v492q0 47 32.5 80t79.5 33t81 -33t34 -80v-1208q0 -47 -34 -80t-81 -33t-79.5 33t-32.5 80v491h-531v-491q0 -47 -33.5 -80t-80.5 -33t-80 33t-33 80z" />
<glyph unicode="I" horiz-adv-x="624" d="M227 113v1208q0 47 33 80t80 33t81 -33t34 -80v-1208q0 -47 -34 -80t-81 -33t-80 33t-33 80z" />
<glyph unicode="J" horiz-adv-x="1216" d="M106 352q-6 18 -6 35q0 27 14 52q21 42 65 55q17 6 35 6q26 0 51 -12q42 -21 57 -66q29 -86 102.5 -140.5t178 -54.5t187 83t82.5 198v813q0 47 34 80t81 33t80 -33t33 -80v-813q0 -211 -149.5 -359.5t-360.5 -148.5q-168 0 -301 98.5t-183 253.5z" />
<glyph unicode="K" horiz-adv-x="1464" d="M213 113v1198q0 45 33 78.5t80 33.5t79.5 -33.5t32.5 -78.5v-588l664 666q33 33 79 33h1q47 0 79.5 -33t32.5 -80t-32 -80l-451 -449l455 -596q27 -32 27 -67q0 -25 -14 -53q-34 -64 -92.5 -64t-92.5 41l-443 580l-213 -218v-290q0 -47 -32.5 -80t-79.5 -33t-80 33 t-33 80z" />
<glyph unicode="L" horiz-adv-x="1153" d="M213 113v1208q0 47 33 80t80 33t80.5 -33t33.5 -80v-1094h555q45 0 79 -33.5t34 -79.5t-34 -80t-79 -34h-669q-47 0 -80 33t-33 80z" />
<glyph unicode="M" horiz-adv-x="1728" d="M213 113v1208q0 47 33 80t80 33h6q59 0 90 -48l407 -565l408 565q35 47 92 48h2q47 -2 81 -35t34 -78v-1208q0 -45 -34 -79t-81 -34t-79.5 33t-32.5 80v862l-295 -410q-36 -47 -93 -47h-4q-59 0 -94 47l-293 410v-862q0 -47 -33.5 -80t-80.5 -33t-80 33t-33 80z" />
<glyph unicode="N" horiz-adv-x="1579" d="M215 113v1192v10q0 51 40 79q36 25 72 25q8 0 17 -1q45 -7 72 -44l661 -915v844q0 45 33 77.5t78 32.5t78.5 -32.5t33.5 -77.5v-1190q0 -47 -33.5 -80t-80.5 -33t-82 41q-8 8 -10 12l-656 910v-850q0 -45 -32.5 -79t-78.5 -34t-79 33t-33 80z" />
<glyph unicode="O" horiz-adv-x="1740" d="M150 737q0 303 203.5 520.5t496.5 217.5t496.5 -220.5t203.5 -519.5t-207 -516q-92 -102 -221 -160.5t-268 -58.5q-297 0 -500.5 217t-203.5 520zM383 737q0 -207 137 -355.5t330.5 -148.5t330 151t136.5 353.5t-135 353t-331 150.5t-332 -148.5t-136 -355.5z" />
<glyph unicode="P" horiz-adv-x="1193" d="M213 113v1208q0 47 33 80t80 33h366q182 0 311.5 -129t129.5 -310.5t-129.5 -309.5t-311.5 -128h-252v-444q0 -47 -33.5 -80t-80.5 -33t-80 33t-33 80zM440 784h252q88 0 149.5 61.5t63.5 147.5q-2 90 -63.5 151.5t-149.5 61.5h-252v-422z" />
<glyph unicode="Q" horiz-adv-x="1728" d="M135 699.5q0 308.5 209 531.5t512 223t504 -227q209 -219 209 -530.5t-209 -532.5q-96 -100 -227 -162l-48 -18q135 -74 231.5 -74t199.5 78q32 26 71 26q8 0 16 -2q48 -6 79 -45q25 -33 25 -72q0 -8 -1 -16q-6 -49 -47 -82q-168 -129 -338 -129h-6q-168 0 -375 123 q-55 31 -111.5 31t-102.5 -13.5t-56 -21.5q-31 -17 -58 -17q-33 0 -61 23q-6 6 -16 6q-43 60 -43 104q0 15 5 27q19 52 64 74l6 4q-125 60 -227 156q-205 227 -205 535.5zM377 702.5q0 -215.5 136 -368t339 -152.5t341 151.5t138 363.5t-139 363.5t-340 151.5t-334 -149 q-141 -145 -141 -360.5z" />
<glyph unicode="R" horiz-adv-x="1280" d="M184 113v1208q0 47 33 80t80 33h367q182 0 310 -129t128 -322t-160 -326q139 -106 139 -297v-21q0 -55 9 -99q54 -16 72 -70q6 -19 6 -37q0 -33 -23 -65q-35 -48 -101 -48h-2q-92 0 -145 95q-43 90 -43 245q-4 94 -86 148q-53 35 -115 49h-241v-444q0 -47 -34 -80 t-81 -33t-80 33t-33 80zM412 784h252q88 0 149 61.5t61 148.5t-61 149.5t-149 62.5h-252v-422z" />
<glyph unicode="S" horiz-adv-x="1366" d="M146 279q-1 7 -1 14q0 35 23 63q27 32 72 38q7 1 13 1q37 0 64 -24q195 -158 387 -158h5q154 0 249 70.5t95 152.5q0 156 -361 223h-4q-160 31 -276.5 86.5t-171 142.5t-54.5 179q0 178 157 293t362 115q90 0 184 -31t140 -57.5t122 -75.5q35 -25 44 -68q2 -12 2 -23 q-1 -30 -17 -56q-24 -36 -66 -45q-11 -2 -22 -2q-30 0 -58 18q-96 66 -171 98.5t-158 32.5q-135 0 -221.5 -63.5t-86.5 -135.5q0 -35 17 -59q57 -94 309 -142h4q172 -35 283 -86q254 -125 254 -344q0 -190 -168 -312t-387 -122q-268 2 -525 205q-33 27 -38 72z" />
<glyph unicode="T" horiz-adv-x="1327" d="M102 1321q0 47 33 80t80 33h875q47 0 79.5 -33t32.5 -80t-33.5 -81t-78.5 -34h-326v-1093q0 -47 -33 -80t-80 -33t-79.5 33t-32.5 80v1093h-324q-47 0 -80 34t-33 81z" />
<glyph unicode="U" horiz-adv-x="1667" d="M215 592v729q0 47 33 80t80 33t80.5 -33t33.5 -80v-729q0 -150 106.5 -257.5t258 -107.5t258 106.5t106.5 258.5v729q0 47 34 80t81 33t80 -33t33 -80v-729q0 -244 -173 -418t-419 -174t-419 173t-173 419z" />
<glyph unicode="V" horiz-adv-x="1536" d="M138 1349q18 44 63 60q21 9 43 9q20 0 41 -8q43 -17 61 -60l399 -949l400 949q18 43 62 60q21 8 42 8q22 0 43 -9q42 -16 60 -60q9 -23 10 -45q0 -20 -8 -40l-506 -1196l-8 -17q0 -2 -2 -4l-27 -27q-4 -4 -13.5 -8t-27.5 -10h-4q-8 -2 -21.5 -2t-19.5 2h-4q-8 4 -16 4 l-3 2h-2q-6 0 -18 12h-2q-2 2 -14 11q-2 4 -6.5 9t-6.5 7t-5 9t-7 12l-502 1196q-9 21 -9 42q-1 21 8 43z" />
<glyph unicode="W" horiz-adv-x="2256" d="M145 1264q-8 21 -8 41q-1 22 9 45q18 43 61 59q21 9 43 9q21 0 42 -8q44 -17 60 -60l402 -949l264 629q29 70 105.5 70t107.5 -70l264 -629l399 949q18 43 62 60q22 8 43 8t43 -8q42 -17 60 -61q8 -21 9 -42q0 -22 -10 -43l-502 -1194q-4 -16 -22 -33q0 -2 -2 -6 q-8 -4 -14 -11h-2l-19 -12h-2q-2 0 -4 -1t-14 -5h-4q-6 -2 -19.5 -2t-19.5 2h-7q-12 4 -14 5t-7 2t-15 11h-2q-18 12 -27 29q-8 4 -12 21l-269 635l-268 -635q-2 -6 -8 -19l-14 -14q0 -2 -3 -6q-4 -2 -12 -11h-4l-16 -12h-2q-6 0 -19 -6h-6q-6 -2 -19.5 -2t-19.5 2h-6 q-12 4 -14 5t-7.5 3t-15.5 10h-2q-8 6 -16 15.5t-13 13.5v2q-2 2 -5 9.5t-5 9.5z" />
<glyph unicode="X" horiz-adv-x="1478" d="M164 1323q8 45 46 73q30 22 66 21q9 0 18 -1q46 -7 73 -46l346 -471l344 471q27 39 73 46q9 1 19 1q35 1 65 -21q38 -28 44 -73q2 -10 2 -19q0 -34 -21 -65l-389 -528l389 -533q21 -30 21 -62q0 -26 -14 -54q-32 -62 -92 -62t-97 47l-344 473l-346 -473 q-37 -47 -97.5 -47t-92.5 62q-14 28 -14 54q0 32 21 62l389 533l-389 528q-21 31 -21 65q-1 9 1 19z" />
<glyph unicode="Y" horiz-adv-x="1236" d="M127 1323q6 45 45 73q31 23 66 23q9 0 18 -1q45 -7 72 -46l350 -479l350 479q29 39 75 46q9 1 18 1q36 0 65 -21q37 -28 44 -74q1 -9 1 -19q0 -35 -21 -64l-419 -575v-553q0 -47 -33 -80t-79 -33t-80 33t-34 80v553l-415 575q-24 31 -24 67q0 7 1 15z" />
<glyph unicode="Z" horiz-adv-x="1366" d="M145 106v9q0 10 2 14v10q6 6 7 21q6 4 7 7t5 11h2l752 1028h-662q-47 0 -80 34t-33 81t33 80t80 33h899l29 -9q6 0 12 -6t8 -6h2q6 -2 12.5 -11t9.5 -11t7 -9.5t5 -10.5t5 -7l6 -23q2 -6 2 -12v-22q-2 -4 -2 -9l-4 -12l-14 -29v-4l-754 -1026h660q47 0 80.5 -33.5 t33.5 -80.5t-33.5 -80t-80.5 -33h-883q-12 0 -24.5 1t-22.5 11q-10 0 -18 8v3q-6 0 -15 14l-14 14l-4 10q-8 14 -8 17z" />
<glyph unicode="[" horiz-adv-x="880" d="M201 -143v1454q0 51 34.5 87t86.5 36h421q39 0 69 -29t30 -69t-29 -68.5t-70 -28.5h-305v-1311h305q41 0 70 -28.5t29 -68.5t-30 -68.5t-69 -28.5h-421q-51 0 -86 36t-35 87z" />
<glyph unicode="\" horiz-adv-x="917" d="M149 1349q17 44 60 61t86 0t61 -60l502 -1194q18 -43 1 -87.5t-62 -60.5q-16 -8 -41 -8q-76 0 -105 68l-501 1196q-18 41 -1 85z" />
<glyph unicode="]" horiz-adv-x="880" d="M113 -168q0 41 27.5 68.5t68.5 27.5h307v1311h-307q-41 0 -68.5 27.5t-27.5 68.5t28.5 70t67.5 29h422q51 0 87 -36t36 -87v-1454q0 -51 -36 -87t-87 -36h-422q-39 0 -67.5 28.5t-28.5 69.5z" />
<glyph unicode="^" horiz-adv-x="1024" d="M164 1040q0 29 24 62l195 266q51 74 125 74h18q72 0 127 -74l195 -266q23 -35 22 -62q0 -41 -52 -41t-82.5 18.5t-71.5 72.5l-148 190l-147 -190q-41 -53 -72 -72t-82 -19t-51 41z" />
<glyph unicode="_" horiz-adv-x="1228" d="M-49 -231.5q0 38.5 28.5 67.5t67.5 29h1237q39 0 67.5 -29t28.5 -67.5t-28.5 -67.5t-67.5 -29h-1237q-39 0 -67.5 29t-28.5 67.5z" />
<glyph unicode="`" horiz-adv-x="1024" d="M334 1455.5q0 29.5 48 55t104.5 25.5t93.5 -59l116 -181q19 -27 19 -45q0 -43 -75 -43t-132 56l-139 131q-35 31 -35 60.5z" />
<glyph unicode="a" horiz-adv-x="1267" d="M82 511q0 212 140 362.5t347 150.5q145 0 273 -90q10 39 38.5 64.5t70.5 25.5t74 -33t32 -78v-804q0 -45 -32 -77t-74 -32t-70.5 24.5t-38.5 63.5q-125 -88 -273 -88q-207 0 -347 149.5t-140 361.5zM301 511q0 -124 75 -208t192.5 -84t194.5 84t77 207t-78 209t-193.5 86 t-191.5 -85t-76 -209z" />
<glyph unicode="b" horiz-adv-x="1351" d="M190 111v1212q0 45 33 78t79 33t79 -33t33 -78v-385q123 86 274 86q207 0 352.5 -151.5t145.5 -361.5t-145.5 -360.5t-352.5 -150.5q-150 0 -278 88q-8 -37 -38 -62.5t-73 -25.5t-76 33t-33 78zM414 511q0 -118 80.5 -203t193.5 -85t194 85t81 203t-80 204t-195 86 t-194.5 -86t-79.5 -204z" />
<glyph unicode="c" horiz-adv-x="1169" d="M119 512q0 211 153.5 360.5t366.5 151.5q178 0 326 -113q35 -27 41 -73q1 -8 1 -15q0 -36 -23 -65q-28 -35 -72 -41q-8 -1 -15 -1q-35 0 -63 23q-90 66 -204 66t-204 -88t-90 -207t89 -206t203.5 -87t205.5 66q27 22 61 22q9 1 17 -1q44 -6 72 -42q23 -28 23 -63 q1 -8 -1 -16q-6 -44 -41 -74q-152 -109 -326 -109q-213 0 -366.5 150.5t-153.5 361.5z" />
<glyph unicode="d" horiz-adv-x="1351" d="M123 511q0 210 145.5 361.5t352.5 151.5q152 0 274 -86v385q0 45 33 78t79 33t78.5 -33t32.5 -78v-1212q0 -45 -32.5 -78t-75.5 -33t-73 25.5t-38 62.5q-129 -88 -278 -88q-207 0 -352.5 150.5t-145.5 360.5zM346 511q0 -118 81 -203t193.5 -85t193.5 85t81 203t-80 204 t-194.5 86t-194.5 -86t-80 -204z" />
<glyph unicode="e" horiz-adv-x="1247" d="M119 512q2 211 146.5 361.5t349 150.5t345 -134t152.5 -341v-10q0 -45 -29.5 -73t-78.5 -28h-652q18 -88 70 -135q66 -76 192 -91q24 -3 45 -3q97 0 172 53q31 33 82.5 33t71.5 -27q28 -32 28 -65t-28 -68q-146 -134 -358 -134h-3q-214 1 -358.5 150.5t-146.5 360.5z M342 612h580q-18 72 -99.5 139.5t-204.5 77.5q-119 -6 -190.5 -73.5t-85.5 -143.5z" />
<glyph unicode="f" horiz-adv-x="741" d="M133 950q0 47 34 80t81 33h53v29q0 344 309 344q45 0 79 -34t34 -80t-33 -80t-83 -34t-62 -12q-8 0 -13.5 -35t-5.5 -69v-29h62q47 0 79.5 -33t32.5 -79t-32.5 -79.5t-79.5 -33.5h-62v-723q0 -47 -32.5 -80t-79.5 -33t-80 33t-33 80v723h-53q-47 0 -81 32.5t-34 79.5z " />
<glyph unicode="g" horiz-adv-x="1351" d="M123 506.5q0 212.5 143.5 365t347.5 152.5q156 0 275 -86q8 37 38.5 61.5t72.5 24.5t74 -31.5t32 -77.5v-790q0 -203 -144.5 -347.5t-347.5 -144.5q-117 0 -215 52q-41 18 -55 62q-6 18 -6 35q0 26 12 50q21 41 63 56q18 6 37 6q24 0 48 -11q52 -29 131 -29h3 q81 1 155.5 63.5t95.5 156.5q-119 -82 -269 -82h-3q-203 0 -345 155q-143 147 -143 359.5zM344 506q0 -121 78 -207t193.5 -86t193.5 84t78 209t-79 212t-191.5 87t-192.5 -89t-80 -210z" />
<glyph unicode="h" d="M190 113v1208q0 47 33 80t80 33t81 -33t34 -80v-356q113 59 219 59q184 0 315 -132t131 -317v-462q0 -47 -32.5 -80t-79.5 -33t-80 33t-33 80v462q0 90 -64.5 155t-156.5 67q-90 -2 -153.5 -66.5t-65.5 -155.5v-462q0 -47 -34 -80t-80 -33t-80 33t-34 80z" />
<glyph unicode="i" horiz-adv-x="575" d="M193 111v798q0 49 31.5 81t78.5 32t79 -32t32 -81v-798q0 -47 -32 -79t-78 -32t-78.5 33t-32.5 78zM193 1280v43q0 45 32.5 78t78.5 33t78 -32t32 -79v-43q0 -47 -32 -80t-78 -33t-78.5 33t-32.5 80z" />
<glyph unicode="j" horiz-adv-x="509" d="M-10 -252q0 47 31.5 79t80.5 32v1052q0 47 33 80t79 33t78 -33t32 -80v-1052q0 -90 -65 -155.5t-157 -65.5q-49 0 -80.5 31.5t-31.5 78.5zM104 1278v41q0 49 33 81t80 32t79 -32t32 -81v-41q0 -45 -33 -79t-78 -34t-79 34t-34 79z" />
<glyph unicode="k" horiz-adv-x="1146" d="M190 113v1208q0 47 33 80t80 33t81 -33t34 -80v-709l420 420q33 33 80 33t80.5 -33t33.5 -80t-35 -80l-307 -307l316 -379q26 -33 26 -68q0 -26 -14 -54q-33 -64 -94.5 -64t-92.5 41l-301 365l-112 -113v-180q0 -47 -34 -80t-81 -33t-80 33t-33 80z" />
<glyph unicode="l" horiz-adv-x="509" d="M205 113v1208q0 47 32.5 80t80 33t81 -33t33.5 -80v-1208q0 -47 -33.5 -80t-81 -33t-80 33t-32.5 80z" />
<glyph unicode="m" horiz-adv-x="1947" d="M190 109v804q0 47 32 79t77 32q72 0 98 -61q104 61 219 61q197 0 322 -141q121 141 309.5 141t313.5 -126t125 -304v-485q0 -45 -32 -77t-77 -32t-78 31.5t-33 77.5v485q0 88 -61.5 149.5t-146 61.5t-146 -59.5t-65.5 -145.5v-491q0 -45 -32 -77t-76 -32t-78 33t-34 76 v491q-2 84 -63.5 144.5t-146.5 60.5t-146 -61.5t-61 -149.5v-485l-2 -15v-6l-7 -12v-10q-32 -66 -102 -66l-20 2q-39 10 -64 39t-25 68z" />
<glyph unicode="n" d="M190 109v806q0 45 32 77t77 32q70 0 100 -63q100 63 217 63q178 0 303 -126t125 -300v-489q0 -45 -30.5 -77t-74.5 -32t-77 31.5t-33 77.5v489q0 86 -62 146.5t-149.5 60.5t-146.5 -60.5t-59 -146.5v-489q0 -45 -35 -77t-79 -32t-76 31.5t-32 77.5z" />
<glyph unicode="o" horiz-adv-x="1280" d="M143 508q0 211 144.5 363.5t347.5 152.5t345 -154.5t142 -367.5t-143 -352q-135 -156 -342 -156t-350.5 151.5t-143.5 362.5zM440 293q80 -76 192.5 -76t192.5 76q80 90 80 217t-80 213q-88 78 -192.5 78t-192.5 -78q-74 -85 -74 -211q1 -129 74 -219z" />
<glyph unicode="p" horiz-adv-x="1351" d="M190 -274v1189q0 45 32 77t76 32t76 -24.5t38 -59.5q129 84 278 84q205 0 350.5 -151.5t145.5 -362.5t-145.5 -359.5t-350.5 -148.5q-158 0 -274 84v-360q0 -43 -34 -77t-80 -34t-79 34t-33 77zM416 504q0 -127 80 -199q78 -86 191.5 -86t194.5 86t81 204t-80 208 q-80 84 -195 84t-193.5 -85t-78.5 -212z" />
<glyph unicode="q" horiz-adv-x="1351" d="M123 511q0 212 145.5 362.5t352.5 150.5q143 0 278 -86q6 37 37 61.5t74 24.5t75.5 -33t32.5 -78v-1187q0 -43 -32.5 -76t-78.5 -33t-79 33t-33 76v360q-125 -86 -274 -86q-207 0 -352.5 149.5t-145.5 361.5zM344 510q0 -117 82 -204t198.5 -87t186.5 86q84 78 84 205 t-84 205q-76 88 -187.5 88t-195.5 -88t-84 -205z" />
<glyph unicode="r" horiz-adv-x="899" d="M190 109v806q0 45 32 76t78 31t79 -30.5t33 -76.5v-14q47 55 129 89q80 33 146 33h3q68 -1 99.5 -31.5t31.5 -75t-31.5 -77t-76.5 -32.5q-190 0 -301 -309v-389q0 -45 -33 -77t-79 -32t-78 31.5t-32 77.5z" />
<glyph unicode="s" horiz-adv-x="1007" d="M118 214q-1 7 -1 14q0 37 24 65q27 37 74 41h11q40 0 69 -25q109 -90 220 -90h5q78 0 139 39q37 31 37 52.5t-6 29.5q-4 10 -26 25q-49 35 -164 57h-2q-109 20 -190 59t-130 113q-35 57 -35 129q0 133 121 225q111 76 253 76t306 -113q37 -25 47 -69q3 -13 2 -25 q0 -30 -16 -57q-25 -37 -69 -46q-11 -2 -22 -2q-32 0 -60 19q-115 76 -190 76t-122 -37q-33 -23 -33 -40t5.5 -25.5t21.5 -18.5q45 -31 150 -49l2 -2h2q109 -20 198.5 -61.5t132.5 -113t43 -141.5q0 -143 -129 -237q-119 -82 -266 -82q-190 2 -364 141q-33 27 -38 73z" />
<glyph unicode="t" horiz-adv-x="819" d="M86 911q0 47 33 80t80 33h59v297q0 47 34 80t81 33t79.5 -33t32.5 -80v-297h52q47 0 80.5 -33t33.5 -79t-33.5 -79.5t-80.5 -33.5h-52v-572q47 0 80 -33.5t33 -80.5t-33 -80t-80 -33q-94 0 -160.5 66.5t-66.5 160.5v572h-59q-47 0 -80 32.5t-33 79.5z" />
<glyph unicode="u" d="M170 426v489q0 43 31.5 76t77 33t77 -33t31.5 -76v-489q0 -88 60.5 -148.5t148.5 -60.5t150.5 60.5t64.5 148.5v489q0 43 30.5 76t75 33t78 -33t33.5 -76v-489q0 -174 -128 -300t-303 -126t-301 125t-126 301z" />
<glyph unicode="v" horiz-adv-x="1191" d="M132 941q18 40 61 58q18 9 37.5 9t39.5 -9q40 -18 60 -59l235 -557l238 557q16 42 56 60q20 9 41 9q20 1 41 -9q41 -18 59 -59q8 -19 9 -39q0 -21 -10 -42l-335 -794q-4 -10 -8.5 -14.5t-8.5 -9.5t-13 -13.5t-13.5 -13.5t-10.5 -7h-4v-2q-8 0 -16 -4h-4q-8 -2 -19.5 -2 t-19.5 2h-4q-12 4 -17 4v2h-4q-35 16 -40 27.5t-7 13.5q-6 2 -10 17l-332 794q-9 21 -9 41q-1 20 8 40z" />
<glyph unicode="w" horiz-adv-x="1763" d="M142 942q18 40 58 58q20 9 40 9q20 -1 41 -9q41 -18 57 -60l242 -551l143 342q29 66 101.5 66t99.5 -66l145 -342l242 551q14 42 56 60q21 9 42 9q21 -1 41 -9q40 -18 58 -58q8 -20 9 -39q0 -21 -10 -43l-338 -794l-8 -17l-2 -2q-8 -14 -26 -24q0 -2 -1.5 -2.5t-8.5 -5.5 t-10 -6t-5 -2t-14 -5h-4q-6 -2 -19.5 -2t-19.5 2h-4q-8 4 -15 4l-2 2h-2q-8 4 -18 12v3q-2 2 -13 10q-8 0 -14 14q-2 0 -2 2l-158 371l-145 -354q-2 -4 -10 -17v-2q-37 -37 -45 -39h-5q-8 0 -14 -6h-4q-8 -2 -21.5 -2t-19.5 2h-6q-12 6 -21 8q-16 4 -16 13q-2 2 -8 6 q-18 16 -19 20q-2 2 -5 8t-5 9l-336 794q-9 21 -9 42q-1 20 8 40z" />
<glyph unicode="x" horiz-adv-x="1167" d="M152 92q-2 10 -1 19q0 33 21 59l246 338l-246 336q-21 26 -21 58q-1 9 1 19q8 43 44 69q27 20 58 20q9 0 19 -2q42 -8 71 -41l205 -275l205 275q28 33 72 41q10 2 20 2q33 0 60 -20q36 -26 43 -69q1 -9 1 -18q0 -33 -20 -59l-244 -336l244 -338q21 -27 21 -61 q1 -9 -1 -19q-8 -45 -40.5 -67.5t-71.5 -22.5t-84 45l-205 281l-205 -281q-39 -45 -80 -45t-69 23q-35 23 -43 69z" />
<glyph unicode="y" horiz-adv-x="1204" d="M106 432v483q0 45 32 77t77 32t76 -30.5t31 -78.5v-483q0 -88 62 -148.5t150.5 -60.5t149.5 60.5t61 148.5v483q0 47 31 78t76 31t78 -31.5t33 -77.5v-774q0 -205 -142.5 -347t-347.5 -142q-109 0 -211 51q-43 18 -58 60q-6 18 -6 37q0 24 11 48q20 37 64 52q16 5 33 5 q29 0 60 -15q48 -24 118 -24h6q73 1 144 53t95 132q-86 -49 -194 -49q-176 0 -302.5 127t-126.5 303z" />
<glyph unicode="z" horiz-adv-x="1134" d="M125 109v2l2 14v8q4 4 4 11.5t8 15.5q0 4 6 10h2l461 637h-375q-43 0 -75.5 31.5t-32.5 77t32.5 77t75.5 31.5h592l13 -2h10q6 0 9 -2t11 -4q4 -6 6 -6l15 -9q4 0 4 -4l10 -10q4 0 9.5 -9t9.5 -9q6 -18 6 -23.5t4 -9.5v-12l2 -9v-2l-2 -10q0 -14 -4 -22q0 -8 -6 -11v-6 l-11 -10v-2l-462 -635h376q43 0 76 -31.5t33 -77t-33 -77t-76 -31.5h-592q-12 0 -20 2h-6q-8 4 -12 4l-17 8q-6 6 -6 9q-8 0 -20.5 15t-12.5 21q-6 3 -6 11l-6 18v14q-2 2 -2 7z" />
<glyph unicode="{" horiz-adv-x="983" d="M113 588q0 41 27.5 68.5t76.5 29.5q104 4 148.5 56.5t44.5 166.5l-4 148q0 158 87 252t314 143q47 10 80 -14.5t33 -79.5t-58 -74q-141 -43 -184 -98.5t-43 -165.5l4 -152q0 -115 -53.5 -180t-159.5 -100q109 -35 161 -100.5t52 -180.5l-4 -151q0 -111 43 -166.5 t184 -98.5q57 -18 57.5 -73.5t-32.5 -80t-80 -13.5q-227 49 -314 143t-87 254l4 147q0 113 -45.5 166t-147.5 55q-49 2 -76.5 30t-27.5 69z" />
<glyph unicode="|" horiz-adv-x="585" d="M248 -174v1720q0 41 28.5 70t69.5 29t70.5 -29t29.5 -70v-1720q0 -41 -29.5 -69.5t-70.5 -28.5t-69.5 28.5t-28.5 69.5z" />
<glyph unicode="}" horiz-adv-x="983" d="M109 -182.5q0 55.5 59 73.5q141 43 183 98.5t42 166.5l-4 151q0 115 53.5 180.5t159.5 100.5q-109 35 -161 100t-52 180l4 152q0 111 -42 166t-183 98q-59 18 -59 73.5t32.5 80t79.5 14.5q227 -49 314.5 -143.5t87.5 -251.5l-5 -148q0 -115 45.5 -167t149.5 -56 q47 -2 74.5 -29.5t27.5 -68.5t-27.5 -68.5t-74.5 -30.5q-104 -2 -149.5 -55t-45.5 -166l5 -147q0 -160 -87 -254t-315 -143q-47 -10 -79.5 14t-32.5 79.5z" />
<glyph unicode="~" horiz-adv-x="942" d="M174 534.5q0 28.5 8 45.5q35 94 82 140t118 46t171 -40t131 -40q61 0 90 53.5t66 53.5t59.5 -21.5t22.5 -49.5t-9 -46q-35 -94 -82 -140.5t-117.5 -46.5t-171 41t-130.5 41q-62 1 -97 -65q-23 -41 -59.5 -41t-59 20.5t-22.5 49z" />
<glyph unicode="&#xa1;" horiz-adv-x="516" d="M190 113v827q0 47 33 80t80 33t79 -33t32 -80v-827q0 -47 -33 -80t-78 -33t-79 33t-34 80zM190 1280v41q0 47 33 80t80 33t79 -33t32 -80v-41q0 -47 -33 -80t-78 -33t-79 33t-34 80z" />
<glyph unicode="&#xa2;" horiz-adv-x="1189" d="M127 607.5q0 217.5 156.5 370t375.5 155.5h9l65 155q18 43 61.5 60.5t86.5 0t60 -61.5t-1 -85l-51 -121q61 -31 99 -60.5t44 -76.5t-22.5 -83t-72.5 -41t-70.5 15.5t-63.5 41.5l-232 -555q41 -12 88 -13q107 0 197 66q35 29 80 22.5t73.5 -42.5t22.5 -81t-41 -75 q-152 -111 -332 -111q-92 0 -174 29l-47 -111q-29 -68 -98.5 -67.5t-100 51.5t-8.5 104l60 142q-164 154 -164 371.5zM348 619.5q0 -87.5 39 -154.5l180 430q-96 -29 -157.5 -108.5t-61.5 -167z" />
<glyph unicode="&#xa3;" horiz-adv-x="1318" d="M135 88q0 68 68 90l104 31v360h-65q-45 0 -76 31t-31 75t31 75.5t76 31.5h65v189q0 225 124 354t357.5 129t389.5 -166q39 -39 39 -90t-36 -87t-90.5 -36t-89.5 39q-100 106 -212.5 106.5t-169 -69.5t-56.5 -186v-183h414q43 0 74.5 -31.5t31.5 -75.5t-31.5 -75 t-74.5 -31h-414v-350h565q47 0 79 -31.5t32 -78t-31.5 -78t-79.5 -31.5h-897q-43 0 -69.5 25.5t-26.5 62.5z" />
<glyph unicode="&#xa5;" horiz-adv-x="1404" d="M108.5 1328q0.5 46 36 81t98 35t109.5 -70l359 -534l362 532q47 72 106.5 72t94.5 -32t35 -82t-31 -91l-381 -516h248q37 0 63.5 -26.5t26.5 -64.5t-26.5 -64.5t-63.5 -26.5h-316v-150h316q37 0 63.5 -26.5t26.5 -64.5t-26.5 -64.5t-63.5 -26.5h-316v-98q0 -51 -34.5 -86 t-86 -35t-86 34.5t-34.5 86.5v98h-316q-37 0 -63.5 26.5t-26.5 64.5t27 64.5t63 26.5h316v150h-316q-37 0 -63.5 26.5t-26.5 64.5t27 64.5t63 26.5h244l-377 516q-31 43 -30.5 89z" />
<glyph unicode="&#xa7;" horiz-adv-x="1294" />
<glyph unicode="&#xa8;" horiz-adv-x="1024" d="M272 1302.5q0 55.5 38 94.5t93.5 39t94.5 -39t39 -94.5t-39 -93.5t-94.5 -38t-93.5 38t-38 93.5zM682 1302.5q0 55.5 38 94.5t93 39t94 -39t39 -94.5t-39 -93.5t-94 -38t-93 38t-38 93.5z" />
<glyph unicode="&#xa9;" horiz-adv-x="1699" d="M109 713v4q0 305 217 523t526 218t524 -216t215 -521v-4q0 -305 -217 -523.5t-526 -218.5t-524 216.5t-215 521.5zM186 713q0 -277 190.5 -470.5t472 -193.5t473 195.5t191.5 472.5v4q0 276 -190 469.5t-472 193.5t-473.5 -195.5t-191.5 -471.5v-4zM465 723v4 q0 168 112.5 284.5t277.5 116.5t273 -88q33 -23 33 -58.5t-21.5 -57t-48 -21.5t-53.5 21q-84 66 -181 65.5t-166.5 -76t-69.5 -184.5v-4q0 -106 69.5 -183t172 -77t188.5 74q23 18 48 18t46.5 -21.5t22 -52.5t-22.5 -49q-125 -109 -290 -108.5t-277.5 115t-112.5 282.5z" />
<glyph unicode="&#xaa;" horiz-adv-x="798" d="M119 1125q0 128 85 219.5t210 91.5q90 0 166 -54q10 53 63 54q29 0 48.5 -19.5t19.5 -46.5v-487q0 -29 -19.5 -48.5t-46.5 -19.5t-44 15.5t-21 39.5q-76 -55 -166 -55q-123 0 -209 91t-86 219zM133 676q0 29 20.5 49t49.5 20h446q29 0 48.5 -20t19.5 -49t-19.5 -49.5 t-48.5 -20.5h-446q-29 0 -49.5 20.5t-20.5 49.5zM252 1125.5q0 -74.5 45 -126t111.5 -51.5t121.5 47q47 53 47.5 130t-46 127.5t-118 50.5t-116.5 -51.5t-45 -126z" />
<glyph unicode="&#xab;" horiz-adv-x="1054" d="M112.5 543q0.5 35 28.5 69l258 334q39 49 87.5 49t77 -30.5t28.5 -68.5t-27 -73l-217 -280l221 -287q25 -31 25 -71t-29.5 -69.5t-78 -29.5t-80.5 43l-265 340q-29 39 -28.5 74zM626.5 542.5q0.5 32.5 30.5 69.5l258 334q35 49 85.5 49t79 -29.5t28.5 -69.5t-29 -73 l-215 -280l219 -287q27 -33 26 -72t-29.5 -68.5t-77 -29.5t-80.5 43l-265 340q-31 41 -30.5 73.5z" />
<glyph unicode="&#xad;" horiz-adv-x="835" d="M135 628q0 50 36 86t85 36h385q49 0 85 -36t36 -86t-36 -86t-85 -36h-385q-49 0 -85 36t-36 86z" />
<glyph unicode="&#xae;" horiz-adv-x="851" d="M70 1094v2q0 147 104.5 252.5t252.5 105.5t251.5 -104.5t103.5 -251.5v-2q0 -148 -104.5 -253.5t-253 -105.5t-251.5 104.5t-103 252.5zM111 1094q0 -131 91 -224.5t224 -93.5t224 94.5t91 225.5v2q0 131 -91 224t-224 93t-224 -94t-91 -225v-2zM299 911v355q0 33 33 32 h108q53 0 90 -37.5t37 -93t-47 -96.5q41 -31 41 -86l2 -37q25 -4 25 -28q0 -27 -29 -35h-8q-55 0 -55 100q-8 41 -60 57h-69v-131q0 -14 -10.5 -23t-24.5 -9q-33 0 -33 32zM367 1108h73q25 0 43.5 18.5t18.5 44t-18.5 43t-43.5 17.5h-73v-123z" />
<glyph unicode="&#xb0;" horiz-adv-x="921" d="M152 1112v4q0 133 103 231.5t238.5 98.5t238 -98.5t102.5 -231.5v-4q0 -133 -102.5 -232.5t-238 -99.5t-238.5 99.5t-103 232.5zM299 1112q0 -80 56.5 -138.5t138 -58.5t137 58.5t55.5 138.5v4q0 80 -55.5 137.5t-138 57.5t-138 -57.5t-55.5 -137.5v-4z" />
<glyph unicode="&#xb4;" horiz-adv-x="1024" d="M412 1251q0 20 16 45l117 181q37 59 93 59t104.5 -25.5t48.5 -55.5t-35 -60l-138 -131q-59 -55 -132.5 -55.5t-73.5 42.5z" />
<glyph unicode="&#xb8;" horiz-adv-x="1024" d="M348 -240.5q0 27.5 17 50.5l145 210h186l-125 -288q-25 -59 -72.5 -59.5t-99 29.5t-51.5 57.5z" />
<glyph unicode="&#xbb;" horiz-adv-x="1054" d="M137 543q0 35 29 69l258 334q39 49 87 49t76.5 -30.5t28.5 -68.5t-26 -73l-217 -280l221 -287q25 -31 24.5 -71t-30 -69.5t-77.5 -29.5t-81 43l-264 340q-29 39 -29 74zM651 542.5q0 32.5 31 69.5l258 334q35 49 85 49t79 -29.5t29 -69.5t-29 -73l-215 -280l219 -287 q27 -33 26 -72t-30 -68.5t-77 -29.5t-81 43l-264 340q-31 41 -31 73.5z" />
<glyph unicode="&#xbf;" horiz-adv-x="1093" d="M125 289q10 39 45 61q37 20 77 10t62 -47q66 -113 197 -112q96 0 164.5 66.5t68.5 161.5t-68.5 162.5t-164.5 67.5q-39 0 -69.5 31t-30.5 70q0 2 1 4t0 2t-1 2v213q0 43 29.5 71.5t71.5 28.5t70.5 -28.5t28.5 -71.5v-133q144 -35 238 -150.5t94 -280.5t-127 -291 t-305 -126q-117 0 -216.5 58.5t-154.5 154.5q-20 37 -10 76zM406 1296v37q0 43 29.5 72t71.5 29t70.5 -29t28.5 -72v-37q0 -41 -28.5 -70.5t-70.5 -29.5t-71.5 29.5t-29.5 70.5z" />
<glyph unicode="&#xc0;" horiz-adv-x="1329" d="M133 154l453 1206q14 33 43.5 53.5t64.5 18.5q78 4 109 -72l452 -1206q18 -53 -12.5 -103.5t-101 -50.5t-97.5 72l-100 266h-498l-100 -266q-29 -72 -99.5 -72t-101 50t-12.5 104zM528 563h332l-166 441zM555 1864.5q0 29.5 48 55.5t104.5 26t93.5 -60l117 -180 q18 -29 18 -45q0 -43 -75 -43t-132 55l-139 131q-35 31 -35 60.5z" />
<glyph unicode="&#xc1;" horiz-adv-x="1323" d="M133 154l453 1206q14 33 43.5 53.5t64.5 18.5q78 4 109 -72l452 -1206q18 -53 -12.5 -103.5t-101 -50.5t-97.5 72l-100 266h-498l-100 -266q-29 -72 -99.5 -72t-101 50t-12.5 104zM528 563h332l-166 441zM744 1661q0 20 16 45l117 181q37 59 93 59t104.5 -25.5 t48.5 -55.5t-35 -60l-138 -131q-59 -55 -132.5 -55.5t-73.5 42.5z" />
<glyph unicode="&#xc2;" horiz-adv-x="1359" d="M135 154l453 1206q14 33 44 53.5t64 18.5q78 4 109 -72l452 -1206q18 -53 -12.5 -103.5t-100.5 -50.5t-97 72l-101 266h-497l-101 -266q-29 -72 -99.5 -72t-101 50t-12.5 104zM381 1659q0 16 25 49l135 170q49 59 118 59h74q72 0 119 -59l135 -170q25 -33 25 -49 q0 -41 -72 -41t-139 55l-107 92l-106 -92q-66 -55 -152 -55q-55 0 -55 41zM530 563h332l-166 441z" />
<glyph unicode="&#xc3;" horiz-adv-x="1359" d="M135 154l453 1206q14 33 44 53.5t64 18.5q78 4 109 -72l452 -1206q18 -53 -12.5 -103.5t-100.5 -50.5t-97 72l-101 266h-497l-101 -266q-29 -72 -99.5 -72t-101 50t-12.5 104zM324 1667.5q0 22.5 8 50.5q35 94 83 140.5t117.5 46.5t170 -41t133.5 -41q59 0 94 65 q27 41 62.5 41t58 -20.5t22.5 -43t-8 -50.5q-35 -94 -83 -140.5t-117.5 -46.5t-170 41t-133.5 41q-59 1 -94 -65q-27 -41 -62.5 -41t-58 20.5t-22.5 43zM530 563h332l-166 441z" />
<glyph unicode="&#xc4;" horiz-adv-x="1357" d="M135 154l453 1206q14 33 44 53.5t64 18.5q78 4 109 -72l452 -1206q18 -53 -12.5 -103.5t-100.5 -50.5t-97 72l-101 266h-497l-101 -266q-29 -72 -99.5 -72t-101 50t-12.5 104zM362 1712q0 55 38 94t93.5 39t94.5 -39t39 -94t-39 -93t-94.5 -38t-93.5 38t-38 93zM530 563 h332l-166 441zM772 1712q0 55 38 94t93 39t94 -39t39 -94t-39 -93t-94 -38t-93 38t-38 93z" />
<glyph unicode="&#xc5;" horiz-adv-x="1323" d="M109 154l423 1132q-127 78 -126 213v4q0 102 78.5 177t183 75t183.5 -74.5t79 -177.5v-4q0 -135 -125 -211l426 -1134q18 -53 -12.5 -103.5t-101 -50.5t-97.5 72l-100 266h-498l-100 -266q-29 -72 -99.5 -72t-101.5 50t-12 104zM504 563h332l-166 441zM569 1499 q0 -41 29 -68.5t70 -27.5t69.5 27.5t28.5 68.5v4q0 41 -28.5 68.5t-69.5 27.5t-70 -27.5t-29 -68.5v-4z" />
<glyph unicode="&#xc6;" horiz-adv-x="2140" d="M72 90q0 43 20 74l690 1182q49 88 148 88h985q47 0 80 -33t33 -80t-33 -80t-80 -33h-664v-372h572q47 0 79.5 -34t32.5 -80t-32.5 -79t-79.5 -33h-572v-385h674q45 0 79 -32.5t34 -79.5t-33 -80t-80 -33h-799q-53 0 -90 37t-37 90v219h-540l-166 -289q-41 -70 -111 -69 q-47 0 -78.5 29.5t-31.5 72.5zM588 569h411v645h-41z" />
<glyph unicode="&#xc7;" horiz-adv-x="1579" d="M150 737q2 303 223 519.5t528 218.5q268 0 473 -160q37 -31 43 -78t-23.5 -86t-78.5 -45t-84 22q-137 113 -339 113t-360 -147q-150 -154 -149.5 -361t153 -353.5t353.5 -146.5t342 113q35 27 84 20.5t80 -42.5q29 -39 22.5 -87.5t-43.5 -76.5q-205 -160 -473 -160 q-307 0 -528 216t-223 521zM614 -240.5q0 27.5 17 50.5l145 210h186l-125 -288q-25 -59 -72.5 -59.5t-99 29.5t-51.5 57.5z" />
<glyph unicode="&#xc8;" horiz-adv-x="1214" d="M213 113v1208q0 47 33 80t80 33h669q45 0 79 -33t34 -80t-34 -81t-79 -34h-555v-375h478q45 0 78.5 -33.5t33.5 -79.5t-32.5 -80t-79.5 -34h-478v-377h555q45 0 79 -33.5t34 -79.5t-34 -80t-79 -34h-663l-4 2l-2 -2q-47 0 -80 33t-33 80zM522 1865.5q0 29.5 48 55 t104.5 25.5t93.5 -59l116 -181q19 -27 19 -45q0 -43 -75 -43t-132 56l-139 131q-35 31 -35 60.5z" />
<glyph unicode="&#xc9;" horiz-adv-x="1214" d="M213 113v1208q0 47 33 80t80 33h669q45 0 79 -33t34 -80t-34 -81t-79 -34h-555v-375h478q45 0 78.5 -33.5t33.5 -79.5t-32.5 -80t-79.5 -34h-478v-377h555q45 0 79 -33.5t34 -79.5t-34 -80t-79 -34h-663l-4 2l-2 -2q-47 0 -80 33t-33 80zM707 1661q0 20 16 45l117 180 q37 59 93 59.5t104 -25.5t48 -55.5t-34 -60.5l-138 -131q-59 -55 -132.5 -55t-73.5 43z" />
<glyph unicode="&#xca;" horiz-adv-x="1214" d="M213 113v1208q0 47 33 80t80 33h669q45 0 79 -33t34 -80t-34 -81t-79 -34h-555v-375h478q45 0 78.5 -33.5t33.5 -79.5t-32.5 -80t-79.5 -34h-478v-377h555q45 0 79 -33.5t34 -79.5t-34 -80t-79 -34h-663l-4 2l-2 -2q-47 0 -80 33t-33 80zM346 1659q0 16 24 49l136 170 q49 59 118 60h74q72 0 119 -60l135 -170q25 -33 25 -49q0 -41 -72 -41t-139 56l-107 92l-106 -92q-66 -55 -152 -56q-55 0 -55 41z" />
<glyph unicode="&#xcb;" horiz-adv-x="1372" d="M213 113v1208q0 47 33 80t80 33h669q45 0 79 -33t34 -80t-34 -81t-79 -34h-555v-375h478q45 0 78.5 -33.5t33.5 -79.5t-32.5 -80t-79.5 -34h-478v-377h555q45 0 79 -33.5t34 -79.5t-34 -80t-79 -34h-663l-4 2l-2 -2q-47 0 -80 33t-33 80zM326 1712q0 55 37.5 94t93 39 t94.5 -39t39 -94t-39 -93t-94.5 -38t-93 38t-37.5 93zM735 1712q0 55 38 94t93.5 39t94 -39t38.5 -94t-38.5 -93t-94 -38t-93.5 38t-38 93z" />
<glyph unicode="&#xcc;" horiz-adv-x="712" d="M303 1864.5q0 29.5 48 55.5t104.5 26t93.5 -60l117 -180q18 -29 18 -45q0 -43 -74.5 -43t-132.5 55l-139 131q-35 31 -35 60.5zM330 113q0 -47 32.5 -80t79.5 -33t81 33t34 80v1208q0 47 -34 80t-81 33t-79.5 -33t-32.5 -80v-1208z" />
<glyph unicode="&#xcd;" horiz-adv-x="561" d="M170 113q0 -47 33 -80t80 -33t80.5 33t33.5 80v1208q0 47 -33.5 80t-80.5 33t-80 -33t-33 -80v-1208zM332 1661q0 20 16 45l117 180q37 59 93 59.5t104.5 -25.5t48.5 -55.5t-35 -60.5l-137 -131q-59 -55 -133 -55t-74 43z" />
<glyph unicode="&#xce;" horiz-adv-x="561" d="M2 1659q0 16 25 49l135 170q49 59 119 59h73q72 0 119 -59l135 -170q25 -33 25 -49q0 -41 -72 -41t-139 55l-107 92l-106 -92q-66 -55 -152 -55q-55 0 -55 41zM209 113q0 -47 32.5 -80t80 -33t81 33t33.5 80v1208q0 47 -33.5 80t-81 33t-80 -33t-32.5 -80v-1208z" />
<glyph unicode="&#xcf;" horiz-adv-x="561" d="M-16 1712q0 55 37.5 94t93 39t94.5 -39t39 -94t-39 -93t-94.5 -38t-93 38t-37.5 93zM209 113q0 -47 32.5 -80t80 -33t81 33t33.5 80v1208q0 47 -33.5 80t-81 33t-80 -33t-32.5 -80v-1208zM393 1712q0 55 38 94t93.5 39t94 -39t38.5 -94t-38.5 -93t-94 -38t-93.5 38 t-38 93z" />
<glyph unicode="&#xd0;" horiz-adv-x="1662" d="M113 722q0 50 35.5 86t84.5 36h76v477q0 47 33 80t80 33h242q297 0 505.5 -210t208.5 -507t-208.5 -507t-505.5 -210h-242q-47 0 -80 33t-33 80v487h-76q-49 0 -84.5 36t-35.5 86zM537 227h127q203 2 345 144.5t142 345.5t-142.5 346t-344.5 143h-127v-362h81 q49 0 85 -36t36 -86t-35.5 -86t-85.5 -36h-81v-373z" />
<glyph unicode="&#xd1;" horiz-adv-x="1617" d="M215 113v1192q-4 59 40 89.5t89 23.5t72 -44l661 -915v844q0 45 33 77.5t78 32.5t78.5 -32.5t33.5 -77.5v-1190q0 -47 -33.5 -80t-80.5 -33t-82 41q-8 8 -10 12l-656 910v-850q0 -45 -32.5 -79t-78.5 -34t-79 33t-33 80zM383 1667.5q0 22.5 8 50.5q35 94 83 140.5 t118 46.5t170 -41t133 -41q59 0 94 65q27 41 62.5 41t58.5 -20.5t23 -43t-9 -50.5q-35 -94 -83 -140.5t-117.5 -46.5t-170 41t-132.5 41q-60 1 -95 -65q-27 -41 -62.5 -41t-58 20.5t-22.5 43z" />
<glyph unicode="&#xd2;" horiz-adv-x="1740" d="M150 737q0 303 203.5 520.5t496.5 217.5t496.5 -220.5t203.5 -519.5t-207 -516q-92 -102 -221 -160.5t-268 -58.5q-297 0 -500.5 217t-203.5 520zM383 737q0 -207 137 -355.5t330.5 -148.5t330 151t136.5 353.5t-135 353t-331 150.5t-332 -148.5t-136 -355.5zM713 1865.5 q0 29.5 48 55t104.5 25.5t93.5 -59l116 -181q19 -27 19 -45q0 -43 -75 -43t-132 56l-139 131q-35 31 -35 60.5z" />
<glyph unicode="&#xd3;" horiz-adv-x="1740" d="M150 737q0 303 203.5 520.5t496.5 217.5t496.5 -220.5t203.5 -519.5t-207 -516q-92 -102 -221 -160.5t-268 -58.5q-297 0 -500.5 217t-203.5 520zM383 737q0 -207 137 -355.5t330.5 -148.5t330 151t136.5 353.5t-135 353t-331 150.5t-332 -148.5t-136 -355.5zM901 1661 q0 20 17 45l116 180q37 59 93.5 59.5t104.5 -25.5t48 -55.5t-35 -60.5l-137 -131q-59 -55 -133 -55t-74 43z" />
<glyph unicode="&#xd4;" horiz-adv-x="1740" d="M150 737q0 303 203.5 520.5t496.5 217.5t496.5 -220.5t203.5 -519.5t-207 -516q-92 -102 -221 -160.5t-268 -58.5q-297 0 -500.5 217t-203.5 520zM383 737q0 -207 137 -355.5t330.5 -148.5t330 151t136.5 353.5t-135 353t-331 150.5t-332 -148.5t-136 -355.5zM531 1659 q0 16 24 49l136 170q49 59 118 60h74q72 0 119 -60l135 -170q25 -33 25 -49q0 -41 -72 -41t-139 56l-107 92l-106 -92q-66 -55 -152 -56q-55 0 -55 41z" />
<glyph unicode="&#xd5;" horiz-adv-x="1740" d="M150 737q0 303 203.5 520.5t496.5 217.5t496.5 -220.5t203.5 -519.5t-207 -516q-92 -102 -221 -160.5t-268 -58.5q-297 0 -500.5 217t-203.5 520zM383 737q0 -207 137 -355.5t330.5 -148.5t330 151t136.5 353.5t-135 353t-331 150.5t-332 -148.5t-136 -355.5zM473 1667.5 q0 22.5 8 50.5q35 94 83 140.5t118 46.5t170 -41t133 -41q59 0 94 65q27 41 63 41t58.5 -20.5t22.5 -43t-9 -50.5q-35 -94 -83 -140.5t-117.5 -46.5t-170 41t-132.5 41q-60 1 -95 -65q-27 -41 -62.5 -41t-58 20.5t-22.5 43z" />
<glyph unicode="&#xd6;" horiz-adv-x="1740" d="M150 737q0 303 203.5 520.5t496.5 217.5t496.5 -220.5t203.5 -519.5t-207 -516q-92 -102 -221 -160.5t-268 -58.5q-297 0 -500.5 217t-203.5 520zM383 737q0 -207 137 -355.5t330.5 -148.5t330 151t136.5 353.5t-135 353t-331 150.5t-332 -148.5t-136 -355.5zM514 1712.5 q0 55.5 38 94.5t93.5 39t94.5 -39t39 -94.5t-39 -93.5t-94.5 -38t-93.5 38t-38 93.5zM924 1712.5q0 55.5 38 94.5t93 39t94 -39t39 -94.5t-39 -93.5t-94 -38t-93 38t-38 93.5z" />
<glyph unicode="&#xd7;" horiz-adv-x="1269" d="M205 377q0 47 37 80l266 262l-270 262q-33 37 -33 83t32.5 78t78.5 32t81 -35l262 -269l265 269q31 35 78 35t77.5 -32t30.5 -78t-37 -79l-266 -262l268 -262q35 -35 35 -82t-33 -79t-78 -32t-81 33l-263 270l-264 -268q-31 -35 -78 -35t-77.5 31t-30.5 78z" />
<glyph unicode="&#xd8;" horiz-adv-x="1740" d="M150 713v4q0 307 212.5 524t538.5 217q256 0 447 -139l98 100q35 35 75 35t65.5 -23.5t25.5 -61.5t-35 -73l-96 -100q168 -203 168 -475v-4q0 -307 -213 -524.5t-539 -217.5q-254 0 -446 138l-99 -99q-31 -35 -73.5 -34.5t-67.5 24t-25 61t35 72.5l96 101 q-168 203 -167 475zM410 717q0 -162 86 -293l684 715q-125 92 -283 92q-211 0 -349 -148.5t-138 -361.5v-4zM616 293q125 -90 285 -90q211 0 349.5 148.5t138.5 361.5v4q0 158 -86 293z" />
<glyph unicode="&#xd9;" horiz-adv-x="1556" d="M190 592v729q0 47 33 80t80 33t81 -33t34 -80v-729q0 -150 106.5 -257.5t258 -107.5t258 106.5t106.5 258.5v729q0 47 33.5 80t81 33t80 -33t32.5 -80v-729q0 -244 -173 -418t-418.5 -174t-419 173t-173.5 419zM645 1864.5q0 29.5 48 55.5t104.5 26t93.5 -60l117 -180 q18 -29 18 -45q0 -43 -74.5 -43t-132.5 55l-139 131q-35 31 -35 60.5z" />
<glyph unicode="&#xda;" horiz-adv-x="1556" d="M190 592v729q0 47 33 80t80 33t81 -33t34 -80v-729q0 -150 106.5 -257.5t258 -107.5t258 106.5t106.5 258.5v729q0 47 33.5 80t81 33t80 -33t32.5 -80v-729q0 -244 -173 -418t-418.5 -174t-419 173t-173.5 419zM836 1661q0 20 16 45l117 180q37 59 93 59.5t104 -25.5 t48 -55.5t-34 -60.5l-138 -131q-59 -55 -132.5 -55t-73.5 43z" />
<glyph unicode="&#xdb;" horiz-adv-x="1556" d="M190 592v729q0 47 33 80t80 33t81 -33t34 -80v-729q0 -150 106.5 -257.5t258 -107.5t258 106.5t106.5 258.5v729q0 47 33.5 80t81 33t80 -33t32.5 -80v-729q0 -244 -173 -418t-418.5 -174t-419 173t-173.5 419zM465 1659q0 16 24 49l136 170q49 59 118 59h74 q72 0 119 -59l135 -170q25 -33 25 -49q0 -41 -72 -41t-139 55l-107 92l-106 -92q-66 -55 -152 -55q-55 0 -55 41z" />
<glyph unicode="&#xdc;" horiz-adv-x="1556" d="M190 592v729q0 47 33 80t80 33t81 -33t34 -80v-729q0 -150 106.5 -257.5t258 -107.5t258 106.5t106.5 258.5v729q0 47 33.5 80t81 33t80 -33t32.5 -80v-729q0 -244 -173 -418t-418.5 -174t-419 173t-173.5 419zM442 1712q0 55 38 94t93.5 39t94.5 -39t39 -94t-39 -93 t-94.5 -38t-93.5 38t-38 93zM852 1712q0 55 38 94t93 39t94 -39t39 -94t-39 -93t-94 -38t-93 38t-38 93z" />
<glyph unicode="&#xdd;" horiz-adv-x="1466" d="M127 1323q6 45 45 73.5t84 21.5t72 -46l350 -479l350 479q29 39 75 46t83 -20.5t44 -73.5t-20 -83l-419 -575v-553q0 -47 -33 -80t-79 -33t-80 33t-34 80v553l-415 575q-29 37 -23 82zM725 1661q0 20 16 45l117 180q37 59 93.5 59.5t104.5 -25.5t48 -55.5t-35 -60.5 l-137 -131q-59 -55 -133 -55t-74 43z" />
<glyph unicode="&#xdf;" horiz-adv-x="1269" d="M190 111v917q0 223 131.5 352t345.5 129t333.5 -109.5t119.5 -275.5v-4q0 -225 -227 -350q311 -104 311 -364v-5q0 -188 -136 -295.5t-325 -111.5q-51 0 -81.5 28.5t-30.5 73.5q0 78 88 99q238 37 237 213v4q0 158 -235 217q-90 27 -90 101.5t53 109.5q188 104 188 258v4 q0 88 -56 142t-154.5 54t-162 -71.5t-63.5 -190.5v-925q0 -51 -35.5 -86t-88 -35t-87.5 34.5t-35 86.5z" />
<glyph unicode="&#xe0;" horiz-adv-x="1175" d="M129 511q0 212 140.5 362.5t346.5 150.5q145 0 273 -90q10 39 38.5 64.5t70.5 25.5t74 -33t32 -78v-804q0 -45 -32 -77t-74 -32t-70.5 24.5t-38.5 63.5q-125 -88 -273 -88q-206 0 -346.5 149.5t-140.5 361.5zM348 511q0 -124 75 -208t192.5 -84t194.5 84t77 207t-78 209 t-193.5 86t-191.5 -85t-76 -209zM475 1414.5q0 29.5 48 55t104.5 25.5t93.5 -59l117 -181q18 -27 18 -45q0 -43 -74.5 -43t-132.5 56l-139 131q-35 31 -35 60.5z" />
<glyph unicode="&#xe1;" horiz-adv-x="1175" d="M129 511q0 212 140.5 362.5t346.5 150.5q145 0 273 -90q10 39 38.5 64.5t70.5 25.5t74 -33t32 -78v-804q0 -45 -32 -77t-74 -32t-70.5 24.5t-38.5 63.5q-125 -88 -273 -88q-206 0 -346.5 149.5t-140.5 361.5zM348 511q0 -124 75 -208t192.5 -84t194.5 84t77 207t-78 209 t-193.5 86t-191.5 -85t-76 -209zM662 1210q0 20 16 45l117 181q37 59 93 59t104 -25.5t48 -55.5t-34 -60l-138 -131q-59 -55 -132.5 -55.5t-73.5 42.5z" />
<glyph unicode="&#xe2;" horiz-adv-x="1175" d="M129 511q0 212 140.5 362.5t346.5 150.5q145 0 273 -90q10 39 38.5 64.5t70.5 25.5t74 -33t32 -78v-804q0 -45 -32 -77t-74 -32t-70.5 24.5t-38.5 63.5q-125 -88 -273 -88q-206 0 -346.5 149.5t-140.5 361.5zM301 1208q0 16 25 49l135 170q49 59 119 60h73q72 0 119 -60 l135 -170q25 -33 25 -49q0 -41 -72 -41t-139 56l-107 92l-106 -92q-66 -55 -152 -56q-55 0 -55 41zM348 511q0 -124 75 -208t192.5 -84t194.5 84t77 207t-78 209t-193.5 86t-191.5 -85t-76 -209z" />
<glyph unicode="&#xe3;" horiz-adv-x="1175" d="M129 511q0 212 140.5 362.5t346.5 150.5q145 0 273 -90q10 39 38.5 64.5t70.5 25.5t74 -33t32 -78v-804q0 -45 -32 -77t-74 -32t-70.5 24.5t-38.5 63.5q-125 -88 -273 -88q-206 0 -346.5 149.5t-140.5 361.5zM242 1230.5q0 22.5 8 51.5q35 94 83 140t117.5 46t170 -41 t133.5 -41q59 0 94 66q27 41 62.5 41t58 -20.5t22.5 -43t-8 -51.5q-35 -94 -83 -140t-117.5 -46t-170 41t-133.5 41q-59 0 -94 -66q-27 -41 -62.5 -41t-58 20.5t-22.5 43zM348 511q0 -124 75 -208t192.5 -84t194.5 84t77 207t-78 209t-193.5 86t-191.5 -85t-76 -209z" />
<glyph unicode="&#xe4;" horiz-adv-x="1175" d="M129 511q0 212 140.5 362.5t346.5 150.5q145 0 273 -90q10 39 38.5 64.5t70.5 25.5t74 -33t32 -78v-804q0 -45 -32 -77t-74 -32t-70.5 24.5t-38.5 63.5q-125 -88 -273 -88q-206 0 -346.5 149.5t-140.5 361.5zM281 1298.5q0 55.5 37.5 94.5t93 39t94.5 -39t39 -94.5 t-39 -93.5t-94.5 -38t-93 38t-37.5 93.5zM348 511q0 -124 75 -208t192.5 -84t194.5 84t77 207t-78 209t-193.5 86t-191.5 -85t-76 -209zM690 1298.5q0 55.5 38 94.5t93.5 39t94 -39t38.5 -94.5t-38.5 -93.5t-94 -38t-93.5 38t-38 93.5z" />
<glyph unicode="&#xe5;" horiz-adv-x="1175" d="M104 511q0 212 140.5 362.5t347.5 150.5q145 0 272 -90q10 39 39 64.5t71 25.5t73.5 -33t31.5 -78v-804q0 -45 -31.5 -77t-73.5 -32t-71 24.5t-39 63.5q-125 -88 -272 -88q-207 0 -347.5 149.5t-140.5 361.5zM324 511q0 -124 74.5 -208t192.5 -84t194.5 84t76.5 207 t-77.5 209t-193.5 86t-191.5 -85t-75.5 -209zM332 1419v4q0 102 78.5 177t183 75t183.5 -74.5t79 -177.5v-4q0 -100 -79 -176t-183.5 -76t-183 76t-78.5 176zM496 1419q0 -41 28.5 -68.5t69.5 -27.5t69.5 27.5t28.5 68.5v4q0 41 -28.5 69t-69.5 28t-69.5 -28t-28.5 -69v-4z " />
<glyph unicode="&#xe6;" horiz-adv-x="1953" d="M104 521q0 216 143.5 369.5t354.5 153.5q147 0 279 -90q10 39 38.5 64.5t71.5 25.5t76 -32.5t33 -79.5v-25q147 137 348 137t344 -137t156 -346v-12q0 -45 -31 -74t-80 -29h-666q18 -88 72 -137q33 -37 89.5 -63.5t111.5 -30.5q137 -10 217 53q33 33 84 33t74 -27 q55 -66 0 -137q-150 -137 -361 -137t-358 137v-26q0 -45 -33 -78t-76 -33t-71.5 25.5t-38.5 64.5q-125 -90 -279 -90q-211 0 -354.5 152.5t-143.5 368.5zM328 521q0 -126 77.5 -212t196.5 -86t198 87t79 211t-80 212t-198 88t-195.5 -87t-77.5 -213zM1161 625h592 q-18 74 -101 142.5t-208 78.5q-121 -6 -194.5 -75t-88.5 -146z" />
<glyph unicode="&#xe7;" horiz-adv-x="1169" d="M119 512q0 211 153.5 360.5t366.5 151.5q178 0 326 -113q35 -27 41 -72.5t-22 -80.5t-72 -41t-78 22q-90 66 -204 66t-204 -88t-90 -207t89 -206t203.5 -87t205.5 66q33 27 77.5 20.5t72.5 -41.5t21.5 -79t-40.5 -74q-152 -109 -326 -109q-213 0 -366.5 150.5 t-153.5 361.5zM410 -240.5q0 27.5 16 50.5l145 210h187l-125 -288q-25 -59 -73 -59.5t-99 29.5t-51 57.5z" />
<glyph unicode="&#xe8;" horiz-adv-x="1247" d="M119 512q2 211 146.5 361.5t349 150.5t345 -134t152.5 -341v-10q0 -45 -29.5 -73t-78.5 -28h-652q18 -88 70 -135q66 -76 191.5 -91t217.5 50q31 33 82.5 33t71.5 -27q57 -63 0 -133q-147 -135 -361 -134t-358.5 150.5t-146.5 360.5zM342 612h580q-18 72 -99.5 139.5 t-204.5 77.5q-119 -6 -190.5 -73.5t-85.5 -143.5zM475 1414.5q0 29.5 48 55t104.5 25.5t93.5 -59l116 -181q19 -27 19 -45q0 -43 -75 -43t-132 56l-139 131q-35 31 -35 60.5z" />
<glyph unicode="&#xe9;" horiz-adv-x="1247" d="M119 512q2 211 146.5 361.5t349 150.5t345 -134t152.5 -341v-10q0 -45 -29.5 -73t-78.5 -28h-652q18 -88 70 -135q66 -76 191.5 -91t217.5 50q31 33 82.5 33t71.5 -27q57 -63 0 -133q-147 -135 -361 -134t-358.5 150.5t-146.5 360.5zM342 612h580q-18 72 -99.5 139.5 t-204.5 77.5q-119 -6 -190.5 -73.5t-85.5 -143.5zM666 1210q0 20 16 45l117 181q37 59 93 59t104 -25.5t48 -55.5t-34 -60l-138 -131q-59 -55 -132.5 -55.5t-73.5 42.5z" />
<glyph unicode="&#xea;" horiz-adv-x="1247" d="M119 512q2 211 146.5 361.5t349 150.5t345 -134t152.5 -341v-10q0 -45 -29.5 -73t-78.5 -28h-652q18 -88 70 -135q66 -76 191.5 -91t217.5 50q31 33 82.5 33t71.5 -27q57 -63 0 -133q-147 -135 -361 -134t-358.5 150.5t-146.5 360.5zM301 1208q0 16 24 49l136 170 q49 59 118 60h74q72 0 119 -60l135 -170q25 -33 25 -49q0 -41 -72 -41t-139 56l-107 92l-106 -92q-66 -55 -152 -56q-55 0 -55 41zM342 612h580q-18 72 -99.5 139.5t-204.5 77.5q-119 -6 -190.5 -73.5t-85.5 -143.5z" />
<glyph unicode="&#xeb;" horiz-adv-x="1196" d="M125 512q2 211 146.5 361.5t349 150.5t345 -134t152.5 -341v-10q0 -45 -29.5 -73t-78.5 -28h-652q18 -88 70 -135q66 -76 191.5 -91t218.5 50q31 33 82 33t71 -27q57 -63 0 -133q-147 -135 -361 -134t-358.5 150.5t-146.5 360.5zM285 1298.5q0 55.5 37.5 94.5t93 39 t94.5 -39t39 -94.5t-39 -93.5t-94.5 -38t-93 38t-37.5 93.5zM348 612h580q-18 72 -99 139.5t-204 77.5q-119 -6 -191 -73.5t-86 -143.5zM694 1298.5q0 55.5 38 94.5t93.5 39t94 -39t38.5 -94.5t-38.5 -93.5t-94 -38t-93.5 38t-38 93.5z" />
<glyph unicode="&#xec;" horiz-adv-x="575" d="M102 1414.5q0 29.5 48.5 55t104.5 25.5t93 -59l117 -181q18 -27 18 -45q0 -43 -74.5 -43t-132.5 56l-139 131q-35 31 -35 60.5zM131 111v798q0 49 32 81t79 32t78.5 -32t31.5 -81v-798q0 -47 -31.5 -79t-77.5 -32t-79 33t-33 78z" />
<glyph unicode="&#xed;" horiz-adv-x="575" d="M102 111v798q0 49 32 81t79 32t79 -32t32 -81v-798q0 -47 -32 -79t-78 -32t-79 33t-33 78zM262 1210q0 20 17 45l116 181q37 59 93.5 59t104.5 -25.5t48 -55.5t-35 -60l-137 -131q-59 -55 -133 -55.5t-74 42.5z" />
<glyph unicode="&#xee;" horiz-adv-x="575" d="M18 1208q0 16 25 49l135 170q49 59 119 60h74q72 0 118 -60l136 -170q25 -33 24 -49q0 -41 -71.5 -41t-139.5 56l-106 92l-107 -92q-66 -55 -151 -56q-55 0 -56 41zM223 111v798q0 49 32 81t79 32t78.5 -32t31.5 -81v-798q0 -47 -31.5 -79t-78.5 -32t-79 33t-32 78z" />
<glyph unicode="&#xef;" horiz-adv-x="575" d="M-12 1298.5q0 55.5 37.5 94.5t93 39t94.5 -39t39 -94.5t-39 -93.5t-94.5 -38t-93 38t-37.5 93.5zM215 111v798q0 49 32 81t79 32t78.5 -32t31.5 -81v-798q0 -47 -31.5 -79t-78.5 -32t-79 33t-32 78zM397 1298.5q0 55.5 38 94.5t93.5 39t94.5 -39t39 -94.5t-39 -93.5 t-94.5 -38t-93.5 38t-38 93.5z" />
<glyph unicode="&#xf0;" horiz-adv-x="1286" d="M119 506q0 219 135 354t340 135q146 0 285 -84l-213 293l-224 -98q-16 -6 -41.5 -6t-48 22.5t-22.5 55.5q0 53 55 73l186 82q-20 29 -20 71t32.5 74.5t86 32.5t92.5 -55l22 -33l179 78q25 8 46 8t43.5 -23.5t22.5 -55.5q0 -53 -53 -74l-148 -64l185 -262 q94 -137 136 -251.5t42 -248.5q0 -233 -154.5 -394t-401.5 -161t-404.5 156t-157.5 375zM362 506q0 -133 90.5 -226.5t228.5 -93.5t225 92.5t87 224.5t-90 221t-230.5 89t-225.5 -87t-85 -220z" />
<glyph unicode="&#xf1;" d="M193 109v806q0 45 31.5 77t76.5 32q70 0 100 -63q100 63 217 63q178 0 303.5 -126t125.5 -300v-489q0 -45 -31 -77t-75 -32t-77 31.5t-33 77.5v489q0 86 -62 146.5t-149.5 60.5t-146.5 -60.5t-59 -146.5v-489q0 -45 -35 -77t-79 -32t-75.5 31.5t-31.5 77.5zM244 1230.5 q0 22.5 8 51.5q35 94 83 140t117.5 46t170 -41t133.5 -41q59 0 94 66q27 41 62.5 41t58 -20.5t22.5 -43t-8 -51.5q-35 -94 -83 -140t-117.5 -46t-170 41t-133.5 41q-59 0 -94 -66q-27 -41 -62.5 -41t-58 20.5t-22.5 43z" />
<glyph unicode="&#xf2;" horiz-adv-x="1310" d="M119 508q0 211 144.5 363.5t347 152.5t345 -154.5t142.5 -367.5t-144 -352q-135 -156 -341.5 -156t-350 151.5t-143.5 362.5zM342 510q0 -127 74 -217q80 -76 192.5 -76t192.5 76q80 90 80 217t-80 213q-88 78 -192.5 78t-192.5 -78q-74 -86 -74 -213zM471 1414.5 q0 29.5 48 55t104.5 25.5t93.5 -59l117 -181q18 -27 18 -45q0 -43 -75 -43t-132 56l-139 131q-35 31 -35 60.5z" />
<glyph unicode="&#xf3;" horiz-adv-x="1310" d="M119 508q0 211 144.5 363.5t347 152.5t345 -154.5t142.5 -367.5t-144 -352q-135 -156 -341.5 -156t-350 151.5t-143.5 362.5zM342 510q0 -127 74 -217q80 -76 192.5 -76t192.5 76q80 90 80 217t-80 213q-88 78 -192.5 78t-192.5 -78q-74 -86 -74 -213zM659 1210 q0 20 17 45l117 181q37 59 93 59t104 -25.5t48 -55.5t-34 -60l-138 -131q-59 -55 -133 -55.5t-74 42.5z" />
<glyph unicode="&#xf4;" horiz-adv-x="1310" d="M119 508q0 211 144.5 363.5t347 152.5t345 -154.5t142.5 -367.5t-144 -352q-135 -156 -341.5 -156t-350 151.5t-143.5 362.5zM293 1208q0 16 24 49l136 170q49 59 118 60h74q72 0 119 -60l135 -170q25 -33 25 -49q0 -41 -72 -41t-139 56l-107 92l-106 -92 q-66 -55 -152 -56q-55 0 -55 41zM342 510q0 -127 74 -217q80 -76 192.5 -76t192.5 76q80 90 80 217t-80 213q-88 78 -192.5 78t-192.5 -78q-74 -86 -74 -213z" />
<glyph unicode="&#xf5;" horiz-adv-x="1310" d="M119 508q0 211 144.5 363.5t347 152.5t345 -154.5t142.5 -367.5t-144 -352q-135 -156 -341.5 -156t-350 151.5t-143.5 362.5zM236 1230.5q0 22.5 8 51.5q35 94 83 140t117.5 46t170 -41t133.5 -41q59 0 94 66q27 41 62.5 41t58 -20.5t22.5 -43t-8 -51.5q-35 -94 -83 -140 t-117.5 -46t-170 41t-133.5 41q-59 0 -94 -66q-27 -41 -62.5 -41t-58 20.5t-22.5 43zM342 510q0 -127 74 -217q80 -76 192.5 -76t192.5 76q80 90 80 217t-80 213q-88 78 -192.5 78t-192.5 -78q-74 -86 -74 -213z" />
<glyph unicode="&#xf6;" horiz-adv-x="1310" d="M119 508q0 211 144.5 363.5t347 152.5t345 -154.5t142.5 -367.5t-144 -352q-135 -156 -341.5 -156t-350 151.5t-143.5 362.5zM276 1298.5q0 55.5 38 94.5t93.5 39t94.5 -39t39 -94.5t-39 -93.5t-94.5 -38t-93.5 38t-38 93.5zM342 510q0 -127 74 -217q80 -76 192.5 -76 t192.5 76q80 90 80 217t-80 213q-88 78 -192.5 78t-192.5 -78q-74 -86 -74 -213zM686 1298.5q0 55.5 38 94.5t93 39t94 -39t39 -94.5t-39 -93.5t-94 -38t-93 38t-38 93.5z" />
<glyph unicode="&#xf7;" horiz-adv-x="1269" d="M131 721q0 43 31 74.5t76 31.5h827q45 0 75.5 -31.5t30.5 -74.5t-30.5 -75t-75.5 -32h-827q-45 0 -76 32t-31 75zM510 289v10q0 57 41 97t100.5 40t100.5 -40t41 -97v-10q0 -57 -41 -96t-100.5 -39t-100.5 38.5t-41 96.5zM510 1143v10q0 55 42 95t99.5 40t99.5 -40 t42 -95v-10q0 -57 -41 -97t-100.5 -40t-100.5 39.5t-41 97.5z" />
<glyph unicode="&#xf8;" horiz-adv-x="1310" d="M132 93q5 34 38 67l100 88q-75 122 -75 278q0 213 146 369t346 156t337 -131l70 63q35 29 76.5 37t66.5 -9.5t19.5 -50t-35.5 -63.5l-103 -92q76 -127 76 -279q0 -223 -145 -368q-137 -158 -339 -158t-345 131l-70 -61q-82 -68 -141 -29q-27 18 -22 52zM420 526 q0 -66 22 -123l414 367q-72 55 -175 55t-182 -87t-79 -212zM530 281q76 -55 180.5 -55.5t183.5 88.5t79 212q0 68 -25 127z" />
<glyph unicode="&#xf9;" d="M170 426v489q0 43 31.5 76t77 33t77 -33t31.5 -76v-489q0 -88 60.5 -148.5t148.5 -60.5t150.5 60.5t64.5 148.5v489q0 43 30.5 76t75 33t78 -33t33.5 -76v-489q0 -174 -128 -300t-303 -126t-301 125t-126 301zM457 1414.5q0 29.5 48 55t104.5 25.5t93.5 -59l116 -181 q19 -27 19 -45q0 -43 -75 -43t-132 56l-139 131q-35 31 -35 60.5z" />
<glyph unicode="&#xfa;" d="M170 426v489q0 43 31.5 76t77 33t77 -33t31.5 -76v-489q0 -88 60.5 -148.5t148.5 -60.5t150.5 60.5t64.5 148.5v489q0 43 30.5 76t75 33t78 -33t33.5 -76v-489q0 -174 -128 -300t-303 -126t-301 125t-126 301zM647 1210q0 20 17 45l116 181q37 59 93.5 59t104.5 -25.5 t48 -55.5t-35 -60l-137 -131q-59 -55 -133 -55.5t-74 42.5z" />
<glyph unicode="&#xfb;" d="M170 426v489q0 43 31.5 76t77 33t77 -33t31.5 -76v-489q0 -88 60.5 -148.5t148.5 -60.5t150.5 60.5t64.5 148.5v489q0 43 30.5 76t75 33t78 -33t33.5 -76v-489q0 -174 -128 -300t-303 -126t-301 125t-126 301zM285 1208q0 16 24 49l136 170q49 59 118 60h74q72 0 119 -60 l135 -170q25 -33 25 -49q0 -41 -72 -41t-139 56l-107 92l-106 -92q-66 -55 -152 -56q-55 0 -55 41z" />
<glyph unicode="&#xfc;" d="M170 426v489q0 43 31.5 76t77 33t77 -33t31.5 -76v-489q0 -88 60.5 -148.5t148.5 -60.5t150.5 60.5t64.5 148.5v489q0 43 30.5 76t75 33t78 -33t33.5 -76v-489q0 -174 -128 -300t-303 -126t-301 125t-126 301zM262 1296.5q0 55.5 38 94.5t93.5 39t94 -39t38.5 -94.5 t-38.5 -93.5t-94 -38t-93.5 38t-38 93.5zM672 1296.5q0 55.5 38 94.5t93 39t94 -39t39 -94.5t-39 -93.5t-94 -38t-93 38t-38 93.5z" />
<glyph unicode="&#xfd;" horiz-adv-x="1204" d="M106 432v483q0 45 32 77t77 32t76 -30.5t31 -78.5v-483q0 -88 62 -148.5t150.5 -60.5t149.5 60.5t61 148.5v483q0 47 31 78t76 31t78 -31.5t33 -77.5v-774q0 -205 -142.5 -347t-347.5 -142q-109 0 -211 51q-43 18 -57.5 60t4.5 85q20 37 64 51.5t93.5 -10t123 -23.5 t144.5 53t95 132q-86 -49 -194 -49q-176 0 -302.5 127t-126.5 303zM584 1210q0 20 16 45l117 181q37 59 93 59t104.5 -25.5t48.5 -55.5t-35 -60l-138 -131q-59 -55 -132.5 -55.5t-73.5 42.5z" />
<glyph unicode="&#xfe;" horiz-adv-x="1351" />
<glyph unicode="&#xff;" horiz-adv-x="1204" d="M106 432v483q0 45 32 77t77 32t76 -30.5t31 -78.5v-483q0 -88 62 -148.5t150.5 -60.5t149.5 60.5t61 148.5v483q0 47 31 78t76 31t78 -31.5t33 -77.5v-774q0 -205 -142.5 -347t-347.5 -142q-109 0 -211 51q-43 18 -57.5 60t4.5 85q20 37 64 51.5t93.5 -10t123 -23.5 t144.5 53t95 132q-86 -49 -194 -49q-176 0 -302.5 127t-126.5 303zM197 1298.5q0 55.5 37.5 94.5t93 39t94.5 -39t39 -94.5t-39 -93.5t-94.5 -38t-93 38t-37.5 93.5zM606 1298.5q0 55.5 38 94.5t93.5 39t94 -39t38.5 -94.5t-38.5 -93.5t-94 -38t-93.5 38t-38 93.5z" />
<glyph unicode="&#x152;" horiz-adv-x="2955" d="M150 737q0 303 203.5 520.5t500.5 217.5q139 0 268 -58.5t221 -161.5q2 -4 9 -10v76q0 47 32.5 80t79.5 33h670q45 0 79 -33t34 -80t-34 -81t-79 -34h-555v-375h477q45 0 79 -33.5t34 -79.5t-33 -80t-80 -34h-477v-377h555q45 0 79 -33.5t34 -79.5t-34 -80t-79 -34h-664 l-4 2l-2 -2q-47 0 -79.5 33t-32.5 80v114l-9 -8q-92 -102 -221 -160.5t-268 -58.5q-297 0 -500.5 217t-203.5 520zM383 737q0 -207 137 -355.5t330.5 -148.5t330 151t136.5 353.5t-135 353t-331 150.5t-332 -148.5t-136 -355.5z" />
<glyph unicode="&#x153;" horiz-adv-x="2160" d="M119 518q0 215 146.5 370.5t355.5 155.5q131 0 241.5 -67.5t173.5 -173.5q70 111 182.5 176t247.5 65q205 0 348.5 -137t155.5 -346v-12q0 -45 -30.5 -74t-79.5 -29h-666q18 -88 72 -137q33 -37 89 -63.5t111 -30.5q137 -10 217 53q33 33 84.5 33t75.5 -27 q53 -66 -2 -137q-150 -137 -375 -137q-133 0 -244.5 63.5t-181.5 172.5q-33 -49 -67 -84q-137 -158 -350 -158t-358.5 154.5t-145.5 369.5zM344 519q0 -126 80 -218q82 -82 198.5 -82t195.5 89t79 211t-80 211t-197.5 89t-196.5 -87t-79 -213zM1184 625h592 q-18 74 -101.5 142.5t-208.5 78.5q-121 -6 -194.5 -75t-87.5 -146z" />
<glyph unicode="&#x178;" horiz-adv-x="1466" d="M127 1323q6 45 45 73.5t84 21.5t72 -46l350 -479l350 479q29 39 75 46t83 -20.5t44 -73.5t-20 -83l-419 -575v-553q0 -47 -33 -80t-79 -33t-80 33t-34 80v553l-415 575q-29 37 -23 82zM340 1712q0 55 38 94t93 39t94 -39t39 -94t-39 -93t-94 -38t-93 38t-38 93zM750 1712 q0 55 37.5 94t93 39t94.5 -39t39 -94t-39 -93t-94.5 -38t-93 38t-37.5 93z" />
<glyph unicode="&#x2c6;" horiz-adv-x="1024" d="M289 1249q0 16 24 49l136 170q49 59 118 60h74q72 0 119 -60l135 -170q25 -33 25 -49q0 -41 -72 -41t-139 56l-107 92l-106 -92q-66 -55 -152 -56q-55 0 -55 41z" />
<glyph unicode="&#x2dc;" horiz-adv-x="1024" d="M215 1257.5q0 22.5 8 51.5q35 94 83 140t118 46t170 -41t133 -41q59 0 94 66q27 41 63 41t58.5 -20.5t22.5 -43t-9 -51.5q-35 -94 -83 -140t-117.5 -46t-170 40.5t-132.5 40.5q-60 1 -95 -65q-27 -41 -62.5 -41t-58 20.5t-22.5 43z" />
<glyph unicode="&#x2000;" horiz-adv-x="973" />
<glyph unicode="&#x2001;" horiz-adv-x="1946" />
<glyph unicode="&#x2002;" horiz-adv-x="973" />
<glyph unicode="&#x2003;" horiz-adv-x="1946" />
<glyph unicode="&#x2004;" horiz-adv-x="648" />
<glyph unicode="&#x2005;" horiz-adv-x="486" />
<glyph unicode="&#x2006;" horiz-adv-x="324" />
<glyph unicode="&#x2007;" horiz-adv-x="324" />
<glyph unicode="&#x2008;" horiz-adv-x="243" />
<glyph unicode="&#x2009;" horiz-adv-x="389" />
<glyph unicode="&#x200a;" horiz-adv-x="108" />
<glyph unicode="&#x2010;" horiz-adv-x="835" d="M135 628q0 50 36 86t85 36h385q49 0 85 -36t36 -86t-36 -86t-85 -36h-385q-49 0 -85 36t-36 86z" />
<glyph unicode="&#x2011;" horiz-adv-x="835" d="M135 628q0 50 36 86t85 36h385q49 0 85 -36t36 -86t-36 -86t-85 -36h-385q-49 0 -85 36t-36 86z" />
<glyph unicode="&#x2012;" horiz-adv-x="835" d="M135 628q0 50 36 86t85 36h385q49 0 85 -36t36 -86t-36 -86t-85 -36h-385q-49 0 -85 36t-36 86z" />
<glyph unicode="&#x2013;" horiz-adv-x="1081" d="M135 628q0 48 35 82.5t82 34.5h639q47 0 82 -34.5t35 -82.5t-35 -83t-82 -35h-639q-47 0 -82 35t-35 83z" />
<glyph unicode="&#x2014;" horiz-adv-x="1839" d="M135 628q0 48 35 82.5t82 34.5h1397q47 0 81.5 -34.5t34.5 -82.5t-34.5 -83t-81.5 -35h-1397q-47 0 -82 35t-35 83z" />
<glyph unicode="&#x2018;" horiz-adv-x="471" d="M158 1034v21q0 201 102 299q84 88 193 88q63 -1 63 -58q0 -41 -49 -55q-145 -45 -139 -182q49 -14 82.5 -51t33.5 -88v-17q0 -59 -38.5 -98t-103 -39t-104.5 49t-40 131z" />
<glyph unicode="&#x2019;" horiz-adv-x="471" d="M121 913q0 41 47 56q145 45 139 184q-49 12 -83 48t-34 89v17q0 59 39 98t103.5 39t104.5 -49t40 -131v-21q0 -199 -94 -293t-199 -94q-63 0 -63 57z" />
<glyph unicode="&#x201a;" horiz-adv-x="471" d="M111 -240q0 45 47 56q145 47 139 184q-49 14 -83 51t-34 88v17q0 59 39 98t104.5 39t104.5 -48t39 -132v-23q0 -195 -100 -299q-92 -88 -193 -88q-63 0 -63 57z" />
<glyph unicode="&#x201c;" horiz-adv-x="839" d="M158 1034v21q0 201 102 299q84 88 193 88q63 -1 63 -58q0 -41 -49 -55q-145 -45 -139 -182q49 -14 82.5 -51t33.5 -88v-17q0 -59 -38.5 -98t-103 -39t-104.5 49t-40 131zM633 1034v21q0 199 94 293t199 94q65 -1 65 -58q0 -41 -49 -55q-145 -45 -139 -182q49 -14 83 -51 t34 -88v-17q0 -59 -39 -98t-103.5 -39t-104.5 49t-40 131z" />
<glyph unicode="&#x201d;" horiz-adv-x="839" d="M121 913q0 41 47 56q145 45 139 184q-49 12 -83 48t-34 89v17q0 59 39 98t103.5 39t104.5 -49t40 -131v-21q0 -199 -94 -293t-199 -94q-63 0 -63 57zM594 913q0 41 49 56q145 45 139 184q-49 12 -82.5 48t-33.5 89v17q0 59 38.5 98t103 39t104.5 -49t40 -131v-21 q0 -201 -102 -299q-84 -88 -193 -88q-63 0 -63 57z" />
<glyph unicode="&#x201e;" horiz-adv-x="839" d="M111 -240q0 45 47 56q145 47 139 184q-49 14 -83 51t-34 88v17q0 59 39 98t104.5 39t104.5 -48t39 -132v-23q0 -195 -100 -299q-92 -88 -193 -88q-63 0 -63 57zM584 -240q0 45 49 56q145 47 139 184q-49 14 -83 51t-34 88v17q0 59 39 98t103.5 39t104.5 -49t40 -131v-23 q0 -197 -95 -292t-200 -95q-63 0 -63 57z" />
<glyph unicode="&#x2022;" horiz-adv-x="962" d="M227 719v4q0 119 86 204t204 85t204 -85t86 -204v-4q0 -119 -85 -203t-205 -84t-205 84t-85 203z" />
<glyph unicode="&#x2026;" horiz-adv-x="1392" d="M168 137.5q0 63.5 44 108.5t107.5 45t108.5 -45t45 -108.5t-45 -107.5t-108.5 -44t-107.5 44t-44 107.5zM756 137.5q0 63.5 44 108.5t107.5 45t108.5 -45t45 -108.5t-45 -107.5t-108.5 -44t-107.5 44t-44 107.5zM1343 137.5q0 63.5 44.5 108.5t108 45t108.5 -45 t45 -108.5t-45 -107.5t-108.5 -44t-108 44t-44.5 107.5z" />
<glyph unicode="&#x202f;" horiz-adv-x="389" />
<glyph unicode="&#x2039;" horiz-adv-x="636" d="M112.5 539.5q0.5 31.5 30.5 72.5l265 338q35 45 82 45t75.5 -29.5t29.5 -69.5t-26 -73l-219 -286l215 -279q29 -33 29 -73t-28.5 -69.5t-79 -29.5t-85.5 49l-258 332q-31 41 -30.5 72.5z" />
<glyph unicode="&#x203a;" horiz-adv-x="636" d="M138 896q1 40 30 69.5t76 29.5t82 -45l264 -338q31 -41 31 -72.5t-31 -72.5l-258 -332q-35 -49 -85 -49t-79 29.5t-29 69.5t29 73l215 279l-219 286q-27 33 -26 73z" />
<glyph unicode="&#x205f;" horiz-adv-x="486" />
<glyph unicode="&#x2122;" horiz-adv-x="1413" d="M45 1386.5q0 20.5 13.5 34t33.5 13.5h375q18 0 32.5 -13.5t14.5 -34t-14.5 -36t-32.5 -15.5h-139v-467q0 -18 -13.5 -32.5t-34 -14.5t-35 14.5t-14.5 32.5v467h-139q-20 0 -33.5 15.5t-13.5 36zM637 868v518q0 20 14.5 34t32.5 14h4q23 0 39 -21l172 -242l172 242 q20 20 41 21h2q49 -4 49 -48v-518q0 -18 -14 -32.5t-34.5 -14.5t-35 14.5t-14.5 32.5v371l-125 -176q-16 -20 -42 -20.5t-40 20.5l-127 176v-371q0 -18 -13 -32.5t-32.5 -14.5t-34 14.5t-14.5 32.5z" />
<glyph unicode="&#x25fc;" horiz-adv-x="1013" d="M0 0v1014h1014v-1014h-1014z" />
</font>
</defs>
</svg>
